<?xml version="1.0" standalone="no"?>
<!DOCTYPE svg PUBLIC "-//W3C//DTD SVG 1.1//EN" "http://www.w3.org/Graphics/SVG/1.1/DTD/svg11.dtd" >
<svg xmlns="http://www.w3.org/2000/svg">
<metadata></metadata>
<defs>
<font id="voyageregular" horiz-adv-x="718" >
<font-face units-per-em="2048" ascent="1536" descent="-512" />
<missing-glyph horiz-adv-x="307" />
<glyph unicode="&#xfb01;" horiz-adv-x="720" d="M-448.5 -253.5q10.5 73.5 57.5 130.5q42 49 93 59t81 -28q23 -35 18.5 -66.5t-31 -52t-57.5 -14.5q-48 10 -81.5 -11t-37.5 -55.5t17 -73.5q31 -47 87 -29q86 27 166 192q49 102 89 249q29 112 114 426t111 412l12 41q1 14 -3.5 18t-18.5 4h-10q-80 0 -79 10l3 5 q17 20 80 20h16q23 0 31 14q32 116 75.5 206t90.5 144.5t97.5 88t98.5 40.5t91 -2t77 -34.5t56 -63.5q42 -72 43.5 -184t-50.5 -184q-54 -59 -122.5 -59t-106.5 52q-23 30 -22.5 65.5t19 62t55.5 39.5t81 1q45 -12 70 6t27.5 51.5t-5.5 70t-24 63.5q-51 85 -123 62 q-105 -33 -199 -289l-30 -89v-2q-6 -23 -8 -33t0 -17t6.5 -8t15.5 -1h10q77 0 77 -9q0 -3 -3 -7q-14 -21 -80 -21h-16q-17 0 -24 -4t-13 -20q-86 -313 -240 -885q-33 -124 -77.5 -218.5t-90.5 -149.5t-95 -88.5t-94 -41t-85 -0.5t-69.5 26.5t-45.5 45.5q-35 62 -24.5 135.5z M412 395l63 256q72 290 211 195l31 -23q-4 -10 -28 -95t-60 -222t-62 -246q-33 -133 5 -155q23 -15 55 24l10 14q26 40 49 85t38.5 81.5t57.5 134.5q36 86 45 68l2 -18q0 -23 -28 -93q-41 -99 -68.5 -153.5t-75.5 -134.5q-58 -93 -132 -109q-71 -16 -111 53q-60 105 -2 338z " />
<glyph unicode="&#xfb02;" horiz-adv-x="700" d="M-448.5 -253.5q10.5 73.5 59.5 130.5q41 49 91.5 59t82.5 -28q34 -49 6 -95.5t-76 -37.5q-49 10 -83 -11t-38 -55.5t17 -73.5q31 -47 87 -29q86 27 166 192q49 102 89 249l233 858q6 29 3 36t-21 7h-10q-80 0 -79 10l3 5q17 20 80 20h18q16 0 21.5 3.5t11.5 21.5 q28 98 70 178.5t88 131.5t96 86t97.5 47.5t89.5 11t74 -19t50 -46.5q21 -34 26 -74.5t-2.5 -86t-27.5 -126.5q-4 -20 -47.5 -188.5t-97.5 -379t-72 -282.5q-33 -133 5 -155q23 -15 55 24l10 14q26 40 49 85t38.5 81.5t57.5 134.5q36 86 45 68l2 -18q0 -23 -28 -93 q-43 -104 -70 -158t-74 -130q-57 -93 -131 -109q-72 -16 -112 53q-61 105 -3 338q24 96 99 382t96 370l18 6q40 13 72.5 43t47 63t19 66.5t-9.5 54.5q-22 41 -76 30q-81 -17 -159 -143q-56 -92 -100 -227q-8 -28 -8.5 -39t4 -14.5t18.5 -3.5h10q79 0 79 -9l-3 -7 q-17 -21 -80 -21h-18q-26 0 -35 -18l-242 -891q-33 -124 -77 -218.5t-90 -149.5t-95 -88.5t-94 -41t-84.5 -0.5t-69 26.5t-45.5 45.5q-37 62 -26.5 135.5z" />
<glyph horiz-adv-x="0" />
<glyph horiz-adv-x="682" />
<glyph unicode=" "  horiz-adv-x="307" />
<glyph unicode="&#x09;" horiz-adv-x="307" />
<glyph unicode="&#xa0;" horiz-adv-x="307" />
<glyph unicode="!" horiz-adv-x="509" d="M30 73q-20 44 5 85t80.5 55.5t109.5 -4.5q53 -19 73.5 -62.5t-5.5 -83.5q-25 -41 -81 -56.5t-108 3.5q-54 19 -74 63zM170 324l184 946q10 46 16.5 82t7.5 48l1 13q6 0 16 2q115 17 143.5 -59.5t-20.5 -255.5q-8 -33 -108 -334.5t-119 -353.5q-24 -66 -52.5 -91.5 t-52.5 -7.5z" />
<glyph unicode="&#x22;" horiz-adv-x="501" d="M124 1066q2 13 21 21q36 15 64 45.5t35 65.5q5 20 -3.5 36.5t-21.5 26.5t-24.5 26t-12.5 34q-3 44 35 69t76 5q43 -21 50.5 -62.5t-15.5 -87.5q-26 -60 -73 -107.5t-105 -72.5q-25 -12 -26 1zM321 1066q2 13 21 21q81 35 98 111q5 20 -3.5 36.5t-21 26.5t-24 26t-12.5 34 q-3 44 34.5 69t75.5 5q43 -21 50.5 -62.5t-15.5 -87.5q-26 -60 -73 -107.5t-105 -72.5q-25 -12 -25 1z" />
<glyph unicode="#" horiz-adv-x="872" d="M22 269q0 3 3 7q19 19 79 19h99l133 508h-94q-79 0 -79 9l3 7q18 21 80 21h100l53 200q20 74 29 75q3 0 6 -5q15 -20 0 -84l-49 -186h340l53 200q20 74 29 75q3 -2 6 -5q14 -24 0 -84l-49 -186h70q78 0 78 -10q0 -3 -3 -7q-20 -20 -80 -20h-75l-133 -508h71q79 0 79 -8 q0 -3 -3 -6q-18 -21 -80 -21h-78l-49 -192q-18 -74 -28 -75q-4 2 -7 5q-6 9 -6 33t6 49l47 180h-342l-49 -192q-18 -74 -28 -75q-3 0 -7 5q-6 9 -6 33t6 49l48 180h-95q-78 0 -78 9zM242 295h340l133 508h-340z" />
<glyph unicode="$" horiz-adv-x="995" d="M20.5 257.5q0.5 71.5 27.5 142t73.5 122.5t112 79t135.5 15q50 -9 37 -32q-4 -5 -15 -9t-20 -5l-9 -1q-69 12 -128 -12t-96 -71t-55 -109.5t-13 -125.5t37 -122.5t88 -97.5q67 -46 141 -50.5t137 28t112.5 101t69.5 160.5q48 208 -133 312q-134 77 -191.5 206t-17.5 265 q43 150 160 235t250 88l31 115q18 73 27 73q2 0 5 -5q15 -18 0 -82l-26 -101q102 -6 170 -57q44 -32 70.5 -73.5t32.5 -84t-1 -87t-30 -82.5t-54.5 -71.5t-75 -53t-91 -27t-101.5 5.5q-24 6 -33.5 16t-1.5 19q4 5 14.5 8t19.5 3l9 1q60 -12 111 -5.5t87.5 32t61.5 59.5 t33.5 77t4 84.5t-27.5 81.5t-61 68q-52 38 -114.5 40t-118.5 -29t-102 -96.5t-66 -153.5q-44 -200 133 -303q138 -80 196 -201t15 -279q-43 -156 -173 -246t-282 -88l-37 -143q-18 -74 -29 -75q-3 0 -6 5q-6 9 -6 33t6 49l35 134q-106 9 -186 63q-70 47 -106 116.5 t-35.5 141z" />
<glyph unicode="%" horiz-adv-x="1712" d="M25 532q1 77 26 160q63 210 205.5 311.5t310.5 88.5q40 -4 36 -19q-3 -14 -30 -19l-14 -1q-103 9 -187.5 -84.5t-140.5 -286.5q-46 -164 -31.5 -268t79.5 -101q76 3 142.5 87t113.5 227q16 47 26 98q-1 0 -3 1t-3 1q-50 10 -83 43t-41 73t14 82t73 68q38 19 80.5 22 t80.5 -11.5t62 -58t23 -109.5q26 21 56 49t70.5 67.5t63.5 61.5q58 58 64 51l4 -1q5 -1 10 -1q79 -8 107 -47t11 -109t-79 -180q-17 -30 -209 -328t-223 -344q-79 -115 -117 -71l-12 14l448 936q5 11 17.5 38t17.5 38q-21 -25 -39 -41q-19 -18 -60.5 -60.5t-73.5 -71.5 t-62 -51q-5 -42 -33 -129q-66 -185 -192.5 -288.5t-276.5 -108.5q-79 -1 -132.5 35.5t-76.5 98t-22 138.5zM470 886.5q-7 -39.5 19.5 -75.5t75.5 -45q1 0 2 -1t2 -1q26 133 -11 174q-18 17 -42 6q-39 -18 -46 -57.5zM993 1010q2 0 2 2zM1016 422q52 194 170.5 290.5 t277.5 82.5q160 -18 215.5 -123t10.5 -285q-52 -191 -183.5 -309t-273.5 -109q-134 13 -200.5 137t-16.5 316zM1174.5 135.5q18.5 -112.5 85.5 -115.5q71 -6 134 90t105 244q23 79 34 147.5t10 125.5t-22.5 92t-62.5 39q-85 6 -152 -83t-110 -263q-40 -164 -21.5 -276.5z " />
<glyph unicode="&#x26;" horiz-adv-x="1273" d="M22.5 256q0.5 47 12.5 94q18 69 55.5 126.5t88 96t103.5 64t111 41.5q-114 40 -164 142.5t-12 232.5q31 107 117.5 185t187.5 110t204 26t169 -55q49 -35 69.5 -83.5t14 -96.5t-34 -94.5t-68.5 -80t-96.5 -49.5t-111.5 -6q-25 4 -34 12.5t-3 18.5q4 5 14.5 9t19.5 5l9 2 q83 -15 147 20t89.5 91.5t15 120.5t-63.5 102q-52 39 -122 41.5t-136 -27t-122 -96t-81 -157.5q-38 -139 13.5 -239.5t177.5 -100.5q23 0 32 -16q11 -21 -28 -31q-14 -3 -33 -5q-20 -2 -57 -2q-102 -9 -182 -92.5t-111 -197.5q-12 -45 -12.5 -92t10 -94t37 -87t65.5 -69 t98.5 -42t133.5 -6q80 9 143 50t101.5 98.5t63.5 132.5t34.5 146t9.5 145q-198 -7 -293 -69.5t-67 -162.5q12 -40 48.5 -62.5t73.5 -20.5t62.5 36t17.5 95q3 18 9 22q7 3 15 -1.5t9 -16.5q6 -42 -6.5 -77t-36.5 -56t-56 -29t-63.5 -1t-60.5 32t-45 65q-10 26 -12 57t8.5 67 t32 71t62.5 68t96 59t136 43.5t179 21.5q153 6 217.5 56.5t54.5 121.5q-7 41 -30.5 63.5t-53 22.5t-63.5 -25t-58 -73q-12 -14 -20 -14q-8 2 -10 11t4 21q33 64 91.5 93t109.5 6t63 -94q16 -113 -54.5 -200.5t-222.5 -117.5q-2 -80 -23.5 -162t-65 -162t-103 -144.5 t-145 -109t-183.5 -55.5q-86 -10 -156 -3t-125 28t-94.5 53t-65.5 72t-38.5 85.5t-12 92.5z" />
<glyph unicode="'" horiz-adv-x="305" d="M124 1066q2 13 21 21q36 15 64 45.5t35 65.5q5 20 -3.5 36.5t-21.5 26.5t-24.5 26t-12.5 34q-3 44 34 69t77 5q43 -21 50.5 -62.5t-15.5 -87.5q-26 -60 -73 -107.5t-105 -72.5q-25 -12 -26 1z" />
<glyph unicode="(" horiz-adv-x="759" d="M32.5 -38.5q-41.5 244.5 51.5 616.5q48 183 118.5 334t146 249t155.5 161.5t151 84t129 4.5q14 -4 15.5 -12.5t-7 -14.5t-18.5 -4q-106 22 -254 -199t-256 -616q-81 -318 -58.5 -540.5t94 -341t140.5 -89.5q13 5 16 -11q5 -24 -20 -39q-5 -3 -10 -5q-125 -49 -238.5 64.5 t-155 358z" />
<glyph unicode=")" horiz-adv-x="761" d="M22 -454.5q-2 8.5 6.5 14.5t18.5 4q108 -22 256 199t256 616q80 318 57.5 540.5t-94 340.5t-141.5 90q-12 -5 -15 11q-4 26 23 40l8 4q125 49 238 -64.5t154.5 -358t-50.5 -615.5q-48 -183 -118.5 -334t-146 -249t-155.5 -161.5t-151 -84.5t-129 -5q-15 4 -17 12.5z" />
<glyph unicode="*" horiz-adv-x="698" d="M20 1036q0 42 33.5 71.5t79.5 27.5q36 0 115 -1t96 -1q-6 4 -154 100q-36 24 -51 52.5t-8 53.5t31 43q37 26 74.5 14.5t56.5 -53.5l82 -184q6 59 26 195q9 69 44.5 99.5t74.5 14.5q38 -17 42.5 -57.5t-23.5 -79.5l-131 -182l182 94q68 33 107.5 21t39.5 -54 q1 -43 -31.5 -71.5t-80.5 -28.5q-31 1 -111.5 2t-103.5 2q2 -1 52.5 -33t104.5 -67q37 -24 52.5 -53.5t9 -54.5t-30.5 -42q-39 -26 -76 -14.5t-55 51.5l-84 186l-25 -194q-10 -69 -45.5 -100t-72.5 -15q-38 17 -43.5 56t22.5 79l133 185l-182 -94q-68 -33 -108 -22t-42 54z " />
<glyph unicode="+" horiz-adv-x="526" d="M124 422q0 3 3 6q17 21 80 21h123l32 124q18 74 28 75q3 0 7 -5q14 -24 0 -84l-28 -110h118q79 0 79 -10q0 -3 -3 -7q-18 -18 -80 -18h-125l-30 -125q-18 -74 -28 -75q-3 0 -7 5q-6 9 -6 33t6 49l29 113h-119q-79 0 -79 8z" />
<glyph unicode="," horiz-adv-x="366" d="M21 -96q-1 7 10 11q2 0 4 1q84 22 127 84q-29 4 -41 10q-53 19 -73.5 62.5t5.5 83.5q25 41 81 56.5t108 -3.5q36 -13 58 -40t24 -58q6 -30 -19 -72q-36 -63 -121.5 -105t-140.5 -40q-20 0 -22 10zM147 174h3h2h-5z" />
<glyph unicode="-" horiz-adv-x="628" d="M144 422q0 3 3 6q17 21 80 21h281q79 0 79 -10q0 -3 -3 -7q-18 -18 -80 -18h-281q-79 0 -79 8z" />
<glyph unicode="." horiz-adv-x="348" d="M30 72.5q-20 43.5 5 83.5q25 41 80.5 56.5t109.5 -3.5q53 -19 73.5 -63t-5.5 -85q-25 -40 -81 -55t-108 4q-54 19 -74 62.5z" />
<glyph unicode="/" horiz-adv-x="765" d="M23 -37q-8 27 22 78l709 1274q36 63 45 63q3 0 6 -6q8 -27 -23 -80l-708 -1272q-35 -64 -44 -65q-4 0 -7 8z" />
<glyph unicode="0" horiz-adv-x="747" d="M22.5 341.5q4.5 99.5 38.5 225.5q65 249 197 388t295 124q80 -8 131 -38t79.5 -91t23 -163t-43.5 -248q-37 -141 -96 -250.5t-127 -172t-137 -92t-133 -24.5q-46 3 -85.5 20t-75 58t-53.5 102.5t-13.5 161zM193 215q1 -56 12.5 -93.5t29 -53.5t41.5 -17 q62 -5 139.5 116.5t139.5 338.5q67 234 67 381t-75 153q-96 9 -171 -115t-134 -370q-26 -110 -38 -197t-11 -143z" />
<glyph unicode="1" horiz-adv-x="432" d="M43 834.5q-3 23.5 3 41.5l7 17q273 0 330 209v6h20q67 -8 68 -109q2 -102 -76 -417q-14 -57 -49 -193q-33 -130 -53.5 -226.5t-24.5 -127.5l-4 -31q-6 -2 -14 -4q-107 -15 -132.5 52.5t15.5 244.5q58 259 184 631q-17 -36 -59.5 -75t-94 -58.5t-97.5 4.5q-20 12 -23 35.5 z" />
<glyph unicode="2" horiz-adv-x="751" d="M20 29q0 99 128 260.5t335 312.5q140 101 183 209t-6 173.5t-154 64.5q-79 -1 -136.5 -36.5t-80.5 -88.5t-10.5 -121t63.5 -131q25 -27 21.5 -64.5t-37.5 -62.5q-24 -17 -50 -20.5t-40 1.5l-15 6q-33 41 -49 100t-14 122t26 126t65.5 112.5t112.5 80.5t160 31 q74 0 131 -27t89.5 -71t43.5 -104.5t-2 -126t-53 -136.5t-104 -135q-58 -58 -135 -113t-141 -93.5t-123.5 -78t-98.5 -83t-49 -91.5q16 11 43.5 28.5t100 48.5t128.5 36q108 8 207 -80q37 -33 67.5 0.5t43.5 87.5q2 8 6 11t8.5 1t8.5 -5t7 -6l2 -3q0 -60 -39.5 -118.5 t-104 -82t-148.5 22.5q-52 31 -101 44.5t-91 9t-72 -14t-62 -25.5q-16 -7 -32 0t-24 18z" />
<glyph unicode="3" horiz-adv-x="825" d="M22 60.5q7 56.5 31.5 111.5t57.5 96t67 66q57 42 111.5 44.5t83.5 -42.5q30 -57 -8.5 -102t-92.5 -27q-38 10 -71.5 4t-58 -29t-42 -53t-23 -67.5t-1.5 -73t22.5 -70t48.5 -57.5q49 -38 103.5 -41t103 25.5t90 89.5t64.5 145q20 67 14.5 136.5t-27 126.5t-68.5 96 t-110 44q-7 1 -14.5 14.5t1 25t42.5 7.5h2q4 0 15 -1t18 -1q107 -9 184 50.5t109 164.5q17 56 19.5 108.5t-9.5 96t-43 72t-78 33.5q-72 6 -124 -26.5t-72 -84t-13.5 -112t41.5 -107.5q11 -11 7.5 -35t-27.5 -35q-10 -5 -21.5 -5.5t-20 3t-16 7t-11.5 6.5l-5 4 q-24 34 -30 89.5t10.5 116t52.5 113.5t104.5 86.5t157.5 30.5q149 -6 221.5 -107t36.5 -237q-18 -65 -55.5 -115t-87 -80.5t-101.5 -48t-110 -24.5q122 -55 175 -168t15 -246q-30 -100 -102 -174.5t-156 -106.5t-171 -24.5t-146 59.5q-55 49 -77.5 110.5t-15.5 118z" />
<glyph unicode="4" horiz-adv-x="745" d="M20 244q61 0 130 42t131 109t123.5 152t111.5 171.5t90.5 166t64.5 136t31 81.5q0 1 1.5 3t1.5 3h18q45 -5 59 -61.5t-7.5 -187.5t-48 -248.5t-83.5 -340.5l-25 -98h62q79 0 79 -9q0 -3 -3 -7q-18 -21 -80 -21h-66q-19 -82 -31.5 -144.5t-14.5 -84.5l-3 -21q-6 0 -14 -2 q-100 -13 -128.5 45t1.5 207h-232h-34h-17q-5 0 -11 1t-7 1q-40 8 -64.5 34.5t-29.5 49.5zM236 172h192q0 4 2 8q52 224 225 705q3 9 -2 9.5t-8 -7.5q-48 -109 -87 -192.5t-97.5 -197.5t-116.5 -198.5t-108 -126.5z" />
<glyph unicode="5" horiz-adv-x="827" d="M24.5 16.5q-13.5 96.5 28.5 187t123 150.5q54 40 109 41.5t82 -41.5q17 -39 7 -70.5t-41 -49t-63 -7.5q-46 15 -82 1.5t-63.5 -41.5t-40 -70t-12.5 -84t19.5 -83.5t55.5 -68.5q66 -47 131 -27.5t120.5 95t86.5 186.5q28 95 23 179.5t-36 149.5t-97.5 108t-161.5 55 q-7 0 -14.5 13.5t-1.5 23.5l77 231q19 57 34 93t34 68.5t39 45.5t47 17.5t61 -8t78 -38.5q126 -73 211.5 -70t175.5 78q15 10 23.5 6t10.5 -14l3 -10q-10 -47 -90.5 -115t-175.5 -71q-169 -6 -287 77q-24 17 -41.5 20.5t-30 -7.5t-20.5 -28.5t-18 -49.5l-70 -217 q252 -36 363.5 -175.5t46.5 -363.5q-36 -124 -111.5 -206t-157.5 -108.5t-159.5 -17.5t-126.5 52q-75 67 -88.5 163.5z" />
<glyph unicode="6" horiz-adv-x="737" d="M21.5 155q-7.5 158 46.5 371q31 119 76.5 215t96.5 157.5t107 102.5t111 56t104.5 11.5t91.5 -24.5q86 -45 112.5 -145.5t-14 -200t-132.5 -143.5q-31 -15 -62.5 0.5t-32.5 54.5q-1 21 9.5 42.5t20.5 32.5l11 11q65 -1 105 38.5t46 92t-18.5 106.5t-76.5 81 q-99 50 -197 -81t-176 -417l-19 -63q61 34 121 50t110 14t94 -18t74.5 -46t50.5 -71t22.5 -92.5t-9.5 -109.5q-24 -103 -77 -186.5t-116 -131t-130 -68.5t-125 -9q-98 20 -157.5 116t-67 254zM170 129q-12 -114 9 -204t85 -101q79 -13 144 82t104 276q24 114 -3.5 184 t-101 78.5t-192.5 -59.5q-33 -142 -45 -256z" />
<glyph unicode="7" horiz-adv-x="677" d="M32.5 -151q-29.5 72 14.5 241q30 118 90 238t134.5 220t150.5 181.5t153 144.5q-151 -6 -274 80q-30 25 -52 21.5t-35 -23.5t-24 -61q-4 -12 -11 -11.5t-14 6.5l-7 7q0 85 34 143t95 71t145 -34q119 -73 191 -73t174 63q16 9 27 0t14 -22l4 -13q-8 -26 -46 -62.5 t-91 -60.5q-106 -79 -188.5 -179.5t-139.5 -218.5t-95 -241t-65 -270q-12 -60 -20.5 -109.5t-10.5 -68.5l-2 -19q-4 -2 -14 -2q-108 -20 -137.5 52z" />
<glyph unicode="8" horiz-adv-x="739" d="M-33 141q66 201 369 367q-119 166 -68 346q33 120 146 194.5t225 63.5q104 -10 145 -86.5t19 -175.5q-18 -78 -86.5 -161.5t-173.5 -145.5q186 -207 143 -414q-23 -115 -108 -206t-207.5 -129.5t-245.5 -6.5q-100 27 -148.5 131.5t-9.5 222.5zM29 -59q37 -94 116 -115 q121 -32 218.5 33t134.5 200q48 178 -125 400q-274 -138 -344 -318q-37 -106 0 -200zM420 895q-30 -149 80 -299q92 57 153.5 126t79.5 130q25 81 -7 143t-122 68q-60 3 -114.5 -46.5t-69.5 -121.5z" />
<glyph unicode="9" horiz-adv-x="739" d="M22 52q5 73 46 141.5t110 101.5q31 16 63 0.5t33 -55.5q1 -20 -9.5 -41.5t-21 -33t-12.5 -11.5q-85 1 -125 -62.5t-19 -140.5t91 -113q98 -51 196.5 80t176.5 418q11 38 16 61q-107 -59 -205 -63.5t-161.5 36t-91 120t-3.5 180.5q32 136 111.5 235t169 138.5t168.5 23.5 q98 -20 157 -116.5t66.5 -255t-45.5 -371.5q-31 -118 -77 -213.5t-97 -157t-107.5 -103t-111 -56.5t-104.5 -12t-91 25q-65 33 -96.5 102.5t-26.5 142.5zM289 670q-24 -114 3.5 -185t101 -79.5t190.5 59.5q33 142 45 256t-8.5 204t-83.5 101q-79 13 -144 -81.5t-104 -274.5z " />
<glyph unicode=":" horiz-adv-x="442" d="M30 72.5q-20 43.5 5 83.5q25 41 80.5 56.5t109.5 -3.5q53 -19 73.5 -63t-5.5 -85q-25 -40 -81 -55t-108 4q-54 19 -74 62.5zM205.5 713q-20.5 43 5.5 84q24 41 80 55.5t108 -4.5q54 -19 74.5 -62t-4.5 -84t-80.5 -55.5t-109.5 4.5q-53 19 -73.5 62z" />
<glyph unicode=";" horiz-adv-x="458" d="M21 -96q-1 7 10 11q2 0 4 1q84 22 127 84q-29 4 -41 10q-53 19 -73.5 62.5t5.5 83.5q25 41 81 56.5t108 -3.5q36 -13 58 -40t24 -58q6 -30 -19 -72q-36 -63 -121.5 -105t-140.5 -40q-20 0 -22 10zM147 174h3h2h-5zM222.5 713q-20.5 43 4.5 84q26 41 81.5 55.5t109.5 -4.5 q53 -19 73 -62t-6 -84q-24 -41 -80 -55.5t-108 4.5q-54 19 -74.5 62z" />
<glyph unicode="&#x3c;" horiz-adv-x="299" d="M23 417q2 29 8 29q74 4 166 61t114 109q2 5 11 6.5t15 -4t1 -16.5q-18 -41 -63.5 -97.5t-82.5 -92.5l-36 -37q12 -6 61.5 -78t69.5 -113q2 -6 -1.5 -10.5t-8.5 -4.5t-7 3q-54 85 -112.5 133t-130.5 80q-6 3 -4 32z" />
<glyph unicode="=" horiz-adv-x="458" d="M22 369q-1 2 3 6q17 20 79 20h281q79 0 79 -8q0 -3 -3 -6q-18 -21 -80 -21h-283q-76 0 -76 9zM56 475q0 3 3 6q18 21 80 21h281q79 0 79 -10q0 -3 -3 -7q-20 -20 -80 -20h-283q-77 0 -77 10z" />
<glyph unicode="&#x3e;" horiz-adv-x="299" d="M23 188q18 41 63.5 98t81.5 94l37 36q-12 6 -61.5 77.5t-69.5 112.5q-4 12 8 15q6 1 8 -3q53 -84 112 -131.5t132 -80.5q6 -3 4 -32.5t-8 -29.5q-74 -4 -166.5 -61t-114.5 -109q-2 -5 -10.5 -6.5t-14.5 4t-1 16.5z" />
<glyph unicode="?" horiz-adv-x="751" d="M71 73q-20 44 5 85t80.5 55.5t109.5 -4.5q52 -19 72.5 -62.5t-4.5 -83.5q-25 -41 -81 -56.5t-110 3.5q-52 19 -72 63zM107 1016.5q3 78.5 32 153t79 130t128 88t172 29.5q158 -6 228.5 -106t29.5 -238q-23 -74 -74 -147.5t-109.5 -136t-116.5 -127.5t-106.5 -146 t-68.5 -168q-7 -33 -32.5 -41.5t-43.5 6.5l-14 11q25 107 84 218.5t117 188.5t117 166t81 152q21 59 24.5 113.5t-10 98t-49 72t-90.5 33.5q-81 8 -144.5 -21t-96.5 -87t-40 -132t22 -162.5t91 -170.5q9 -47 -24 -72q-21 -19 -53.5 -21t-42.5 13q-48 65 -70.5 145 t-19.5 158.5z" />
<glyph unicode="@" horiz-adv-x="1705" d="M114 126q-44 193 23 458q45 170 122 309t172 234t208.5 160t231 94.5t239.5 29.5q145 0 271.5 -45.5t216.5 -128.5t129 -210t10 -279q-49 -250 -181 -430.5t-319 -288.5q-63 -36 -118.5 -47.5t-100 2.5t-70.5 64t-26 132q-32 -81 -68 -123q-61 -77 -136 -63 q-73 14 -115 108q-68 153 -7 413l8 32q36 135 90.5 235.5t112.5 152t117 74t107.5 13t80.5 -42.5q19 38 39.5 58t43 22.5t41.5 -3.5t44 -20l27 -16q-93 -325 -199 -760q-13 -53 -13 -95t10.5 -68t28 -39.5t40.5 -12.5t47 16q111 70 204.5 269t128.5 403q15 107 9 202.5 t-42 177t-92 141t-141 93t-188 33.5q-258 0 -469.5 -215.5t-311.5 -589.5q-25 -93 -33.5 -183t-0.5 -166.5t27.5 -147t50 -126t68 -101.5t81 -76t88 -46.5t90.5 -16t88 17.5q11 5 14 -11q5 -25 -21 -41q-4 -2 -9 -4q-115 -46 -250.5 -8t-244.5 152.5t-153 307.5zM749 141 q16 -73 52 -73q19 0 37 22q58 74 116 313q61 255 107 428q10 41 33 109v2q-47 75 -117 12q-97 -88 -181 -382q-5 -17 -10 -35q-69 -255 -37 -396z" />
<glyph unicode="A" horiz-adv-x="1218" d="M6 72v7q0 47 31 99q33 56 92.5 107.5t159 92t219.5 58.5l31 74q75 191 149 339t135.5 239.5t121 150.5t106 81.5t88.5 22.5l8 60q6 0 14 2q20 3 37 3q76 0 98 -54q10 -25 10 -65q0 -68 -28 -181q-7 -25 -21.5 -81t-19.5 -77q-4 -17 -83.5 -322.5t-94.5 -367.5 q-13 -60 -13 -98q0 -46 20 -58q6 -3 13 -3q20 0 44 32q4 5 7 10q37 57 64 113.5t82 187.5q30 71 41 71q2 0 4 -3q2 -5 2 -18q0 -23 -31 -93q-44 -107 -70 -161t-71 -127q-58 -94 -131 -110q-14 -3 -26 -3q-53 0 -86 55q-31 53 -31 141q0 83 28 197q0 7 4 19h-219 q-71 -166 -165 -280q-95 -115 -183 -160q-84 -43 -158 -43q-4 1 -8 1q-78 2 -131 54q-37 36 -39 88zM48 56q6 -28 28 -50q33 -33 72 -33q53 1 117 61q112 104 227 361q-74 -13 -140.5 -35.5t-116 -51t-89 -61t-62 -66t-32.5 -65.5q-6 -19 -6 -38q-1 -11 2 -22zM705 449h213 q21 83 69 267t78 302q33 131 63 276q-64 -24 -159 -210t-250 -603q-2 -7 -7.5 -18t-6.5 -14z" />
<glyph unicode="B" horiz-adv-x="923" d="M30 237q16 60 63.5 115.5t119.5 85.5q68 284 106 424q33 129 55 233.5t28 144.5l6 40q6 2 14 2q21 3 38 3q76 -1 98 -59q10 -27 10 -66q0 -68 -29 -173q-6 -24 -23 -93.5t-24 -98.5l-13 -52h41q101 14 163 83t89 173q13 41 13 82q0 25 -5 49q-13 64 -47 114 q-34 48 -99 76q-52 22 -114 22q-16 0 -33 -1q-70 -6 -141.5 -42t-128.5 -90.5t-94 -125.5t-47 -143q-2 -17 -1 -34q0 -57 24 -115q32 -76 106 -136q12 -9 14.5 -18t-1.5 -14l-3 -5q-23 3 -55 31q-70 55 -100 133q-25 63 -24 127q0 15 1 29q7 78 45.5 157.5t100.5 142 t149.5 104.5t183.5 49q33 2 64 2q192 0 296 -96q88 -82 88 -196q0 -42 -12 -87q-29 -108 -108 -177t-185 -104q167 -30 223 -136q30 -57 30 -132q0 -63 -21 -137q-32 -111 -124.5 -201.5t-206.5 -136.5q-102 -42 -215 -42h-24q-126 5 -219 72q-52 38 -70 98q-10 32 -10 64 q1 27 8 55zM76 144q13 -62 59 -95q64 -47 137 -57q23 -3 45 -3q49 -1 95 15q67 24 127.5 70t104.5 113t65 143q19 71 19 130q0 78 -34 134q-60 98 -229 98l-167 -653q-8 2 -19 2q-29 3 -47.5 8.5t-35 18.5t-23 36t-7.5 59v8q0 35 8 81q8 52 25 123q0 4 2 6 q-74 -39 -106 -107q-23 -48 -23 -93q0 -19 4 -37z" />
<glyph unicode="C" horiz-adv-x="645" d="M34 256q-14 60 -14 135q0 134 46 316q37 141 90.5 258.5t113 196t124.5 136t126.5 84.5t117.5 35q20 3 38 3q34 0 62 -10q44 -14 69 -46q32 -46 32 -107q1 -21 -3 -44q-14 -90 -68 -154q-43 -50 -100 -59q-11 -2 -20 -2q-42 0 -68 32q-20 31 -20 59q0 5 1 10q3 33 31 55 q22 18 49 18q6 0 12 -1q9 -1 17 -1q28 0 52 12q32 16 48.5 43.5t19.5 60.5v8q0 29 -20 54q-26 35 -67 35q-27 0 -60 -15q-106 -47 -211 -218q-112 -182 -186 -454q-44 -172 -45 -298q-1 -42 5 -78q20 -147 80 -214q42 -48 87 -48q18 0 37 8q75 31 145.5 118.5t146.5 259.5 q31 70 42 71q6 0 6 -21q0 -28 -29 -93q-77 -169 -149 -259t-179 -132q-51 -21 -99 -21q-63 0 -120 36q-100 63 -140 231z" />
<glyph unicode="D" horiz-adv-x="933" d="M22 154l-2 26q0 70 44 137q52 80 147 121q50 207 108 424q33 129 55 233.5t28 144.5l6 40q4 2 14 2q21 3 38 3q75 -1 97 -59q10 -26 10 -65q0 -68 -30 -174l-45 -192l-197 -756q-7 2 -19 2q-34 3 -54.5 11t-37.5 28q-16 20 -19 56q-1 11 -1 24q0 30 5 71q7 59 28 144 q0 4 2 6q-74 -39 -106 -107q-23 -47 -23 -92q0 -20 4 -38q14 -62 61 -95q49 -37 109 -47q16 -3 33 -3q46 0 98 21q71 28 138.5 94.5t134.5 198.5t116 314q42 154 45 281v25q-1 111 -25 183q-28 80 -76 134q-50 54 -106 74q-47 17 -97 18q-10 0 -20 -1q-70 -6 -140.5 -42 t-127.5 -90.5t-94 -125.5t-47 -143q-2 -17 -1 -34q0 -57 24 -115q32 -76 106 -136q11 -9 13.5 -18t-0.5 -14l-3 -5q-27 3 -55 31q-69 55 -100 133q-25 63 -25 128q0 14 1 28q7 78 45.5 157.5t100.5 142t149 104.5t183 49q30 2 58 3q37 0 72 -4q61 -6 119 -29t103 -61.5 t77 -100.5q33 -62 45 -143q7 -44 6 -97q0 -45 -4 -97q-10 -113 -46 -248q-37 -141 -92.5 -254.5t-118.5 -187t-133.5 -124t-139.5 -70.5q-70 -20 -136 -22q-5 0 -10 -1q-60 0 -112 16q-56 17 -100 49q-70 51 -80 134z" />
<glyph unicode="E" horiz-adv-x="798" d="M22 238v17q0 46 13 95q34 133 128 213.5t214 114.5q-109 40 -153 142q-23 54 -23 117q0 55 18 116q31 107 107 185t166 110q75 27 154 27q15 0 29 -1q93 -6 159 -55q46 -33 64 -77q13 -31 13 -62q0 -13 -2 -26q-8 -43 -35.5 -84.5t-68.5 -71t-94 -43.5q-32 -9 -64 -9 q-21 0 -41 4q-24 4 -33.5 13t-3.5 18q4 5 14.5 9t19.5 6l9 1q24 -4 47 -5q37 0 69 11q54 17 84 52.5t43 77.5q6 20 6 41q0 22 -7 44q-14 44 -53 72q-53 40 -113 42h-9q-55 0 -105 -28q-54 -30 -101 -95.5t-72 -157.5q-18 -74 -17 -137v-30q6 -76 54.5 -124.5t132.5 -48.5 q23 0 32 -16q12 -20 -27 -31q-14 -3 -33 -5q-20 -2 -58 -2q-99 -9 -169.5 -90.5t-102.5 -199.5q-16 -51 -15 -101q0 -19 2 -39q8 -69 34 -122.5t80 -83.5q44 -24 98 -24q13 0 26 1q51 5 105 40t97 81.5t86 110t70.5 113t53.5 101.5q34 69 42 70q5 1 5 -20q0 -28 -29 -93 q-24 -53 -46 -95t-54.5 -95.5t-68.5 -94t-79.5 -77.5t-97 -60t-112.5 -30q-33 -4 -64 -4q-36 -1 -70 5q-62 10 -106.5 36t-79 64t-50 86t-18.5 102z" />
<glyph unicode="F" horiz-adv-x="1046" d="M26 224q14 58 50.5 110t104.5 89t151 44q26 1 37 -5t8 -18q-2 -5 -11.5 -11t-18.5 -9l-9 -4q-82 -7 -142 -40t-87 -78t-34 -94q-2 -14 -2 -28q1 -34 13 -64q18 -43 51 -67q39 -29 91 -31h7q49 0 103 24q58 26 118 74.5t118.5 125t105.5 170.5h-31q-79 0 -79 9l3 7 q17 21 80 21h45q62 127 99 288q29 130 48.5 235t24.5 145l4 40q5 0 15 2q22 4 41 4q72 1 96 -57q12 -29 12 -74q0 -66 -26 -166q-57 -227 -150 -417h62q78 0 78 -10q0 -3 -3 -7q-17 -20 -79 -20h-76q-82 -159 -182 -266q-99 -106 -197 -150q-87 -39 -170 -39q-11 1 -21 1 q-94 6 -172 62q-50 36 -70 91q-12 32 -11 66q-1 23 5 47zM158 894q16 100 84 197.5t192 170t306 94.5q55 7 115 7q140 0 310 -36q141 -31 239 -39q36 -3 65 -4q51 0 85 10q52 14 75 40t28 67q1 7 1 14q0 31 -15 57q-18 32 -51.5 50t-75.5 20h-5q-39 0 -87 -25 q-50 -26 -97 -77q-3 -2 -8.5 -5.5t-17.5 -8t-17 -1.5q-12 3 -10.5 16.5t18.5 31.5q46 51 105 80t113 30h6q50 -1 94 -17q46 -18 71 -60q20 -35 20 -79q0 -11 -1 -22q-7 -69 -52.5 -124.5t-137.5 -93.5q-90 -38 -225 -38q-1 1 -3 1q-138 0 -330 42q-88 22 -172 26 q-24 1 -46 1q-58 -1 -110 -9q-72 -12 -137.5 -35t-114.5 -57.5t-88 -77t-57.5 -91t-23.5 -100.5q-1 -11 -1 -22q0 -41 15 -84q16 -51 55 -87q40 -38 93 -48q25 -5 50 -5q29 0 59 7q56 12 108.5 62t87.5 131q23 26 37 26q24 0 6 -47q-34 -80 -91 -134t-121 -73 q-47 -14 -93 -14q-18 0 -34 2q-62 7 -115.5 47.5t-82.5 106.5q-24 52 -24 115q1 30 6 62z" />
<glyph unicode="G" horiz-adv-x="794" d="M26 259q-4 34 -4 72q0 153 62 378q40 140 97.5 257t120.5 195.5t131.5 136t133.5 84.5t123 34q20 3 39 3q35 0 64 -9q45 -14 71 -46q32 -45 32 -108q0 -21 -3 -43q-14 -91 -68 -154q-43 -50 -100 -59q-11 -2 -20 -2q-43 0 -68 32q-19 30 -19 58v11q5 33 32 55 q23 18 49 18q6 0 12 -1q9 -1 17 -1q27 0 52 12q32 16 48.5 43.5t19.5 60.5v8q0 28 -19 54q-26 35 -69 35q-28 0 -63 -15q-114 -47 -227 -215q-125 -184 -206 -459q-66 -226 -66 -385q0 -67 12 -123q24 -112 86 -126q23 -4 48 6q108 43 201 251q3 14 6.5 27.5t7 25.5t4.5 17 q23 94 48 148t54 70t55.5 12t63.5 -25l23 -14l-55 -201q-13 -47 -47 -163.5t-50 -176.5q-33 -122 -76.5 -216.5t-89 -150.5t-94 -90.5t-93.5 -43.5q-26 -4 -49 -4q-19 0 -36 2q-40 7 -70.5 27.5t-48.5 49.5q-27 48 -27 102q0 17 3 33q10 74 57 131q41 49 93 59q10 2 20 2 q37 0 61 -30q20 -30 20 -57q0 -5 -1 -10q-4 -32 -30.5 -52.5t-57.5 -13.5q-14 3 -28 3q-19 0 -36 -6q-29 -11 -43 -32.5t-13.5 -50t17.5 -54.5q26 -39 61 -39q21 0 45 13q99 53 188 294q24 66 46 144l31 115q-69 -111 -174 -152q-51 -20 -95 -20q-59 0 -107 36 q-83 64 -102 233z" />
<glyph unicode="H" horiz-adv-x="1222" d="M25 168q13 98 84 168q47 46 104 50h11q49 0 75 -38q16 -26 16 -50q-1 -25 -17 -49q-27 -38 -66 -38q-9 0 -19 2q-16 4 -31 4q-24 -1 -46 -11q-34 -16 -50 -46q-14 -26 -14 -57v-10q2 -37 28 -64q44 -46 91 -46q40 0 82 33q131 102 225 472l2 10q24 92 67 271.5t60 248.5 q31 129 51.5 225.5t25.5 128.5l5 31q4 0 14 2q20 3 37 3q76 0 98 -54q10 -24 10 -63q0 -68 -30 -183q-6 -23 -72 -295.5t-78 -318.5l-12 -45h14h232l147 569q33 129 53.5 225.5t24.5 128.5l4 31q6 0 14 2q20 3 37 3q76 0 98 -54q10 -25 10 -65q0 -68 -28 -181 q-27 -96 -41 -158q-4 -17 -83.5 -322.5t-94.5 -367.5q-13 -60 -13 -97q0 -46 20 -58q6 -4 13 -4q18 0 41 29q5 6 9 13q26 40 49 85t38.5 81.5t57.5 134.5q31 70 41 71q6 0 6 -21q0 -20 -29 -93q-44 -108 -70.5 -161.5t-72.5 -126.5q-57 -94 -130 -110q-14 -3 -26 -3 q-53 0 -85 55t-32 144q0 82 27 194l4 19h-225h-20q-36 -118 -87 -209.5t-105 -145.5t-112 -85.5t-112 -34.5h-15q-45 0 -85 14q-46 17 -80 53q-47 54 -47 129q0 17 2 35z" />
<glyph unicode="I" horiz-adv-x="727" d="M25 168q13 98 84 168q47 46 104 50h11q49 0 75 -38q16 -26 16 -50q-1 -25 -17 -49q-27 -38 -66 -38q-9 0 -19 2q-16 4 -31 4q-24 -1 -46 -11q-34 -16 -50 -46q-14 -26 -14 -57v-10q2 -37 28 -64q44 -46 91 -46q40 0 82 33q131 102 225 472l2 10q19 74 125 520 q57 232 73 340q-133 -38 -261 -132t-199 -222q-74 -128 -74 -243v-9q3 -118 92 -138q13 -3 25 -3q57 -1 109 51q64 62 97 159q21 29 35 31q28 0 10 -49q-17 -49 -44 -92.5t-64 -80.5q-36 -37 -88 -54q-32 -11 -68 -11q-20 0 -41 4q-72 13 -126 81q-53 68 -63 168 q-1 13 -2 25q0 90 58 195q167 291 613 363v2h4q8 0 28 4q11 1 22 1q77 0 98 -60q8 -23 8 -59q0 -68 -29 -181q-6 -23 -72 -295.5t-78 -318.5q-28 -117 -70 -212.5t-88.5 -158.5t-98.5 -106.5t-103 -61.5t-99 -19h-5q-46 0 -84 17q-40 18 -70 51q-47 54 -47 129q0 17 2 35z " />
<glyph unicode="J" horiz-adv-x="1089" d="M22 -136q4 69 50 128q92 117 268 148q63 12 128 12q117 0 243 -37q126 312 250 862q52 238 71 383q-135 -34 -266.5 -129.5t-204.5 -226.5q-74 -127 -74 -240q0 -5 1 -10q3 -118 92 -138q14 -3 27 -3q53 0 105 49q66 63 99 159q21 31 35 31q25 3 10 -47q-17 -50 -44 -93 t-64 -80.5t-88 -53.5q-33 -11 -67 -11q-20 0 -42 4q-72 12 -126 79.5t-63 167.5q-1 13 -1 25q0 91 57 197q172 303 645 369q14 2 26 2q78 0 101 -66q11 -30 11 -74q0 -66 -25 -165q-166 -650 -357 -1028q216 -83 391 -250q22 -22 22 -35q0 -8 -9 -12q-5 -3 -16.5 0t-20.5 7 l-8 5q-178 171 -377 246q-233 -438 -492 -438q-90 0 -158.5 39t-100.5 96q-28 52 -28 112v16zM162 -172q-2 -14 -2 -26q0 -57 34 -102q40 -54 125 -54q196 0 375 426q-76 21 -150 21q-58 0 -115 -13q-128 -30 -210 -125q-48 -55 -57 -127z" />
<glyph unicode="K" horiz-adv-x="1230" d="M22 815l-2 26q0 90 58 195q175 302 639 365v2q4 0 14 2q20 3 37 3q76 0 98 -54q10 -24 10 -63q0 -68 -30 -183q-16 -54 -127 -522h6q151 26 268.5 225t161.5 557l4 35q7 0 15 2q10 1 20 1q68 0 100 -73q19 -42 18 -99q0 -56 -18 -126q-56 -206 -185 -346t-284 -193 q59 -23 109.5 -92t99.5 -207q47 -136 59 -153q14 -21 32 2q6 8 16 24q26 40 49 85t38.5 81.5t57.5 134.5q31 70 41 71q6 0 6 -21q0 -23 -28 -93q-43 -105 -70 -159.5t-74 -128.5q-50 -81 -88 -113q-24 -20 -49 -21q-14 1 -28 7q-40 18 -79 94.5t-86 220.5q-52 154 -67 184 q-25 47 -55 56l-13 -47q-39 -162 -103 -281.5t-133.5 -179.5t-141.5 -84q-43 -14 -83 -14q-27 1 -52 7q-62 16 -105 62q-47 54 -47 129q0 17 2 35q13 98 84 168q47 46 104 50h11q49 0 75 -38q16 -26 16 -50q-1 -25 -17 -49q-27 -38 -66 -38q-9 0 -19 2q-16 4 -31 4 q-24 -1 -46 -11q-34 -16 -50 -46q-14 -25 -14 -56v-11q3 -37 29 -64q44 -47 91 -46q40 0 83 33q132 105 225 482q24 92 67 271.5t60 248.5q59 255 76 342q-2 0 -5.5 -1t-5.5 -1q-136 -35 -270.5 -130.5t-208.5 -228.5q-72 -127 -72 -240q1 -5 1 -11q4 -118 90 -138 q12 -3 25 -3q55 -1 108 51q65 62 100 159q19 29 33 31q28 0 10 -49q-17 -49 -44 -92.5t-64 -80.5q-36 -37 -88 -54q-32 -11 -68 -11q-20 0 -41 4q-72 13 -125.5 81t-63.5 169z" />
<glyph unicode="L" horiz-adv-x="1177" d="M24 90q-3 14 -3 29q0 31 14 67q20 52 69 97q74 71 196 79q14 1 28 0q106 0 200 -51q58 158 111 391q44 200 114 354.5t147 240.5q78 85 158 125q57 28 110 28q22 0 43 -4q72 -16 124 -82q33 -46 33 -108q0 -21 -4 -43q-14 -90 -68 -154q-42 -50 -98 -59q-11 -2 -21 -2 q-42 0 -67 32q-19 30 -19 58q1 5 1 11q4 33 32 55q22 18 48 18q6 0 12 -1q9 -1 17 -1q27 0 51 12q32 16 48.5 43.5t19.5 60.5v8q0 29 -20 54q-48 65 -103 65q-44 0 -91 -42q-129 -114 -238 -482q-26 -89 -49 -189q-66 -288 -176 -477q46 -46 101.5 -86.5t123.5 -64.5 q38 -14 69 -14q24 0 44 8q72 31 132.5 123.5t123.5 275.5q28 73 37 73q5 0 6 -20q1 -4 1 -8q0 -27 -21 -86q-22 -59 -34 -91t-33 -81.5t-36.5 -78.5t-38.5 -66t-44.5 -59.5t-49.5 -44t-59 -34.5q-47 -19 -99 -19t-108 20q-112 38 -203 128q-142 -166 -315 -166 q-56 0 -103.5 21t-75 57t-37.5 80zM130 114q-1 -9 -1 -17q0 -42 25 -73q30 -38 90 -38q130 0 229 198q-77 64 -161 74q-12 1 -24 1q-68 0 -114 -48q-38 -45 -44 -97z" />
<glyph unicode="M" horiz-adv-x="1353" d="M23 1164q10 72 42 129.5t92.5 96.5t135.5 46q15 1 28 2q48 0 84 -14q46 -18 79 -66q32 -49 38 -133q1 -21 2 -46q0 -71 -12 -165q47 101 105 190.5t106 132.5q43 39 85 55q26 10 50 11q14 0 28 -4q36 -10 58 -50q22 -39 28 -113q1 -18 2 -39q0 -62 -13 -146 q46 92 97.5 169.5t94.5 116.5q73 65 135 65q14 0 27 -3q81 -20 92 -157q1 -18 1 -37q0 -116 -46 -287q-100 -359 -188 -699q-15 -61 -15 -99q0 -44 20 -58q8 -6 16 -6q18 0 42 26q7 8 14 18q15 24 29.5 50.5t31 64t27.5 63t34 81t36 85.5q31 70 41 71q6 0 6 -21 q0 -20 -29 -93q-3 -8 -16 -39.5t-16.5 -39.5t-14 -34t-14.5 -35t-14 -31t-15 -32.5t-14 -29t-16.5 -31t-16.5 -28.5t-18 -31q-57 -93 -131 -109q-14 -3 -26 -3q-54 0 -86 56q-31 54 -31 141q0 83 28 197q21 83 74.5 281t79.5 297q59 223 59 321q0 51 -16 68q-7 8 -16 8 q-17 0 -42 -24q-58 -56 -130.5 -184t-116.5 -259q-51 -196 -105.5 -412t-83.5 -334l-29 -118q-8 2 -18 2q-44 4 -68 16.5t-40 46.5q-12 25 -12 69q0 16 2 32q6 66 30 172q16 70 40 162.5t63 236.5t53 197q59 223 59 321q0 51 -16 68q-7 8 -16 8q-17 0 -42 -24 q-69 -65 -154 -225.5t-120 -305.5q-5 -27 -12 -47l-119 -473q-20 -79 -37.5 -133.5t-40.5 -98.5q-22 -44 -48 -62q-22 -16 -51 -17q-4 1 -8 1q-33 2 -73 31l-11 11q33 88 107 378q122 480 131 519q36 146 53 242q15 86 15 147v14q-1 64 -25 90q-20 23 -58 24q-6 0 -12 -1 q-49 -5 -92.5 -34.5t-65.5 -70.5q-24 -42 -30 -84q-1 -9 -1 -17q-1 -33 19 -61q24 -36 76 -49q32 -9 49 -36.5t10.5 -60.5t-36.5 -56q-20 -14 -42 -14q-24 0 -50 16q-51 30 -72 92q-17 49 -17 100q0 21 3 42z" />
<glyph unicode="N" horiz-adv-x="921" d="M23 1164q10 72 41.5 129.5t91.5 96.5t135 46q15 1 29 2q48 0 84 -14q46 -17 79 -64.5t39 -130.5q2 -23 1 -48q0 -69 -11 -161q107 225 209 317q73 65 135 65q13 0 26 -3q81 -19 93 -152q2 -21 2 -43q0 -115 -47 -286q-113 -406 -189 -699q-15 -60 -15 -98q0 -45 21 -59 q8 -5 17 -5q19 0 40 24q8 8 15 19q15 24 29.5 50.5t31 64t27.5 63t34 81t36 85.5q31 70 41 71q6 0 6 -21q0 -28 -29 -93q-3 -8 -16 -39.5t-16.5 -39.5t-14 -34t-14.5 -35t-14 -31t-15 -32.5t-14 -29t-16.5 -31t-16.5 -28.5t-18 -31q-57 -93 -131 -109q-14 -3 -26 -3 q-54 0 -86 56q-31 54 -31 141q0 83 28 197q21 83 74.5 281t79.5 297q60 221 60 320q0 49 -15 68q-7 9 -17 9q-17 0 -43 -24q-61 -58 -138 -196.5t-120 -275.5l-8 -34q-6 -23 -34.5 -136.5t-58 -229t-44.5 -179.5q-20 -79 -37.5 -133.5t-40.5 -98.5q-22 -44 -48 -62 q-22 -16 -51 -17q-4 1 -8 1q-33 2 -73 31l-13 11q33 88 107 378l133 519q36 146 52 242q14 85 14 146v15q-1 64 -25 90q-20 23 -58 24q-6 0 -12 -1q-82 -9 -139 -77q-49 -59 -49 -122q0 -10 1 -20q9 -74 93 -97q32 -9 49.5 -36.5t11.5 -60.5t-36 -56q-20 -14 -43 -14 q-24 0 -50 16q-52 30 -71 92q-17 49 -17 100q0 21 3 42z" />
<glyph unicode="O" horiz-adv-x="935" d="M26 430q10 130 50 287q92 347 270 549q164 185 356 186q17 0 35 -2q40 -4 36 -19q-3 -14 -30 -19l-14 -1q-9 1 -17 1q-130 0 -250 -182q-128 -194 -206 -523q-73 -305 -73 -475q0 -32 3 -58q16 -171 136 -176h2q74 0 146 83q74 84 140 238q-129 62 -190 252 q-30 93 -34 197q-1 17 -1 32q0 86 18 164q21 94 59 173.5t94 132.5t120 69q33 8 63 8q74 1 128 -49q75 -70 91 -225q3 -32 3 -68q0 -136 -48 -323q-53 -197 -133 -344q94 31 195 147q47 56 58 56q4 0 4 -6t-3 -15q-13 -33 -55 -80q-105 -120 -221 -139q-101 -172 -226 -266 q-118 -88 -224 -88h-13q-61 4 -112 32t-91 88q-40 61 -58 147q-12 57 -12 133q1 39 4 83zM429 810q-1 -19 -1 -38q0 -99 31 -190q58 -174 164 -232q54 135 100 301q76 272 76 435q0 70 -14 120q-25 89 -95 89q-13 0 -28 -3q-54 -13 -107.5 -85t-86 -174.5t-39.5 -222.5z" />
<glyph unicode="P" horiz-adv-x="1288" d="M25 227q9 61 42.5 117t101.5 95.5t157 47.5q26 1 37 -4.5t8 -17.5q-3 -5 -12.5 -11.5t-18.5 -9.5l-8 -4q-68 -6 -120.5 -31.5t-81.5 -61t-43 -79.5q-11 -34 -10 -66v-18q4 -42 23 -79t50 -60q44 -33 90 -34q89 0 185 127q144 191 269 612q38 128 70.5 261t45.5 202l13 69 q7 0 17 2q15 2 29 2q84 0 108 -60q11 -27 11 -72q0 -67 -25 -173q-66 -270 -170 -504q78 9 158 61.5t150 148.5t105 216q26 91 26 165q0 103 -50 172q-76 103 -263 103q-28 0 -59 -2q-106 -8 -202 -55.5t-164.5 -117t-110.5 -157.5q-41 -87 -49 -175q-1 -15 -2 -31 q0 -71 30 -143q36 -86 113 -150q12 -9 12 -21t-6 -20l-6 -8q-23 3 -55 31q-72 59 -106 148q-28 75 -29 154q-1 14 1 30q6 96 51.5 193.5t119.5 176t187 132.5t245 63q46 3 88 3q237 0 348 -110q85 -85 85 -220q0 -72 -24 -159q-28 -101 -84 -183t-120.5 -132.5t-141 -86 t-141.5 -51t-125 -18.5q-79 -164 -169 -273.5t-176 -155.5q-82 -44 -158 -44q-5 1 -9 1q-80 2 -149 52q-49 36 -73 94q-17 42 -17 85q0 17 2 34z" />
<glyph unicode="Q" horiz-adv-x="966" d="M27 874q12 38 34 60q110 128 250 160q101 170 231 265q123 89 231 89h13q61 -4 112 -32t90.5 -88t57.5 -146q13 -59 13 -136q0 -38 -3 -80q-9 -130 -50 -288q-66 -248 -208 -432t-313 -275q47 -87 109.5 -147.5t128.5 -73.5q20 -4 38 -4q41 0 71 20q44 28 73 93 q23 54 27 16q3 -27 -4 -63q-13 -51 -33 -94t-51.5 -79.5t-77.5 -53.5q-31 -12 -67 -12q-17 0 -35 3q-38 7 -74 33.5t-63 58.5t-55.5 83t-46 87.5t-40.5 89.5q-88 -27 -158 -27q-14 0 -26 1q-65 4 -107.5 36.5t-53.5 75.5q-3 14 -3 30q0 28 13 58q19 46 69 76q44 26 90 26 q15 0 31 -3q62 -12 116.5 -56t94.5 -110q120 95 220.5 264t151.5 389q75 308 75 478q0 30 -2 56q-16 172 -136 175h-2q-70 0 -145 -81q-76 -83 -140 -226q150 -45 209 -224q21 -65 23 -143v-15q0 -70 -17 -140q-20 -77 -56 -144t-95 -116.5t-131 -67.5q-30 -7 -57 -7 q-62 0 -109 37q-67 52 -88 182q-5 34 -5 75q0 111 41 266q34 131 103 262q-119 -42 -225 -166q-43 -51 -43 -34q0 7 4 19zM128 48q-4 -12 -4 -23q0 -25 16 -47q23 -32 79 -37h10q65 0 136 36q-42 89 -95 127q-27 21 -54 21q-23 0 -46 -16q-32 -24 -42 -61zM331 339 q21 -53 68 -53q10 0 21 3q65 15 120.5 79.5t83 148.5t36.5 176q2 24 2 46q0 64 -19 115q-60 167 -184 207q-42 -98 -80 -236q-66 -236 -66 -372q0 -71 18 -114z" />
<glyph unicode="R" horiz-adv-x="1327" d="M24 227q9 61 42.5 117t101.5 95.5t156 47.5q26 1 37 -4.5t8 -17.5q-2 -5 -11.5 -11.5t-18.5 -9.5l-9 -4q-82 -7 -140.5 -41.5t-83.5 -82.5q-25 -46 -30 -98q-1 -10 0 -21q0 -41 16 -77q20 -46 58 -75q44 -33 90 -33q89 0 184 126q143 191 268 612q38 128 71 261t47 202 l13 69q7 0 15 2q15 2 29 2q86 0 110 -60q11 -27 11 -69q0 -68 -27 -176q-49 -198 -115 -373q126 30 224.5 135t137.5 242q19 66 19 121q0 94 -54 156q-72 82 -247 82q-32 0 -68 -3q-105 -8 -201 -55.5t-164.5 -117t-110.5 -157.5q-42 -87 -50 -175q-1 -15 -1 -31 q-1 -71 29 -143q36 -86 115 -150q11 -9 11 -21t-6 -20l-5 -8q-25 3 -57 31q-72 59 -106 148q-28 75 -28 154q0 14 2 30q6 96 51 193.5t119 176t186.5 132.5t244.5 63q53 4 100 4q223 -1 329 -89q89 -74 89 -197q0 -56 -19 -122q-28 -103 -93.5 -184.5t-144.5 -130.5 t-173 -78q122 -64 147 -348q13 -150 58 -150h4q25 3 53 47q26 40 49 85t38.5 81.5t57.5 134.5q29 71 41 71q1 0 2 -1q5 -2 5 -20q0 -20 -29 -93q-43 -105 -70 -159.5t-74 -128.5q-65 -107 -133 -129q-14 -4 -28 -4q-52 0 -95 68q-54 86 -67 278q-8 138 -24 190 q-15 47 -51 48q-4 0 -9 -1q-8 -2 -23 -2q-65 -163 -141 -284.5t-151 -191t-151 -101.5q-59 -25 -114 -24q-16 0 -30 2q-68 8 -127 52q-51 36 -75 94q-17 42 -16 85q0 17 2 34z" />
<glyph unicode="S" horiz-adv-x="892" d="M12 424q30 72 80 123q52 51 120 77q47 18 95 19q22 0 43 -4q31 -5 49 -27t7 -61q-5 -17 -20.5 -32.5t-28.5 -22.5l-13 -7q-30 5 -59 5q-38 0 -73 -9q-62 -16 -103 -50.5t-62 -84.5q-18 -42 -18 -87q0 -9 1 -17q4 -54 41 -111t105 -102q70 -47 148 -52q10 -1 20 0 q66 -1 124 27q66 32 118 101.5t73 162.5q11 48 11 91q0 158 -146 241q-135 78 -197 204q-37 75 -37 156q0 54 17 111q30 103 96 175t144 101q63 23 128 24q15 0 31 -2q82 -7 144 -52q42 -31 62 -73q15 -32 16 -62q0 -9 -2 -18q-6 -39 -27 -77t-59 -63q-36 -26 -80 -38 q-21 -6 -45 -6t-51 7q-42 9 -42 51q0 5 1 11q3 19 15 36t23 24l11 7q43 -10 78 -10q42 0 74 14q56 24 56 70v4q-2 50 -63 94q-51 38 -102 38l-92 -31q-97 -65 -134 -226q-9 -39 -9 -74q0 -55 22 -100q34 -74 129 -129q141 -80 199 -208q32 -71 33 -154q0 -66 -21 -140 q-30 -110 -112 -191t-182 -115q-80 -27 -166 -27q-22 -1 -44 1q-110 8 -193 66q-81 54 -123 129q-41 73 -41 145q0 74 31 148z" />
<glyph unicode="T" horiz-adv-x="1044" d="M20 184q2 47 24 95t60.5 87t97.5 66t128 33q25 3 36.5 -3.5t8.5 -17.5q-2 -6 -11.5 -12t-18.5 -9l-9 -3q-82 -7 -141.5 -40t-86.5 -78t-34 -94q-2 -14 -2 -28q0 -34 12 -64q17 -44 51 -69q35 -27 83 -30h13q42 -1 88 17q53 20 109 60t110.5 103.5t102.5 141.5t88.5 180.5 t65.5 215.5q29 131 48.5 236t24.5 145l4 39q7 2 15 4q22 4 41 4q72 1 96 -57q12 -29 12 -74q0 -66 -26 -166q-50 -197 -120.5 -357.5t-148.5 -266.5t-164 -176q-85 -70 -169 -94q-58 -17 -113 -16q-25 0 -49 3q-78 11 -144 59q-42 30 -62 74q-19 41 -20 86v6zM132 804 q-2 19 -3 39q-1 31 5 65q8 56 30 112.5t64 110t98.5 99.5t140 79t183.5 49q67 10 149 10q41 0 83 -2q132 -8 283 -41q143 -31 239 -39q34 -3 61 -3q53 0 87 10q52 14 75.5 40t27.5 68q1 7 1 14q0 31 -14 57q-18 32 -51.5 49.5t-75.5 19.5h-6q-40 0 -87 -24q-51 -26 -97 -77 q-3 -2 -8.5 -5.5t-17.5 -8.5t-17 -3q-27 10 10 50q57 63 133 91q55 20 103 19q18 -1 36 -3q62 -10 102 -56q33 -39 34 -96q0 -11 -2 -23q-7 -69 -52.5 -124.5t-136.5 -93.5q-90 -38 -225 -38q-2 1 -4 1q-138 0 -328 42q-149 34 -269 34q-59 0 -111 -8q-158 -25 -251.5 -101 t-125.5 -176q-16 -50 -16 -99.5t16 -98.5q16 -51 58 -87q41 -38 97 -48q26 -5 54 -5q30 1 60 7q58 12 113.5 61.5t90.5 129.5q23 28 37 28q27 0 6 -49q-34 -79 -93 -133q-60 -55 -126 -73q-48 -13 -96 -13q-18 0 -36 2q-66 7 -121.5 47.5t-84.5 106.5q-16 39 -22 87z" />
<glyph unicode="U" horiz-adv-x="804" d="M24 116q-2 19 -2 40q0 116 48 286q27 95 81.5 303.5t69.5 272.5q32 129 52.5 225.5t24.5 128.5l5 31q6 0 16 2q20 3 37 3q76 0 98 -54q10 -24 10 -63q0 -68 -30 -183q-57 -206 -184 -678q-60 -223 -60 -321q0 -55 19 -70q6 -6 14 -5q17 0 43 23q61 58 138 196.5 t120 274.5l127 490q33 129 53.5 225.5t24.5 128.5l4 31q7 0 15 2q20 3 37 3q75 0 97 -54q10 -25 11 -65q0 -68 -29 -181q-27 -96 -41 -160q-168 -646 -178 -688q-13 -60 -14 -97q0 -46 21 -58q6 -4 13 -4q18 0 41 29q5 6 9 13q26 40 49 85t38.5 81.5t57.5 134.5q31 70 41 70 q6 0 6 -20q0 -23 -28 -93q-43 -105 -70 -159.5t-74 -130.5q-58 -93 -132 -109q-12 -2 -23 -2q-55 0 -88 57q-31 54 -31 142q0 50 10 110q-46 -92 -97.5 -169.5t-94.5 -116.5q-74 -65 -137 -65q-14 0 -27 3q-81 21 -91 155z" />
<glyph unicode="V" horiz-adv-x="804" d="M51 2q-29 43 -29 128q0 104 44 271q12 46 47 169.5t67 242.5t51 205q30 130 50.5 226.5t26.5 127.5l5 31q7 0 15 2q20 3 37 3q77 0 99 -54q10 -24 10 -64q0 -68 -30 -182q-46 -166 -89 -326.5t-81 -305.5t-55 -208q-29 -110 -29 -168q0 -67 38 -68q6 0 13 2q14 3 31 13 q149 83 277 395q-44 47 -68 127q-19 59 -21 154v22q0 85 14 179q16 106 44.5 204.5t77 174t106.5 100.5q47 20 84 21q77 0 108 -90q19 -56 19 -137q0 -164 -77 -431q-58 -196 -142 -340q78 19 187 125q51 49 63 49q4 0 4 -5q-1 -5 -4 -15q-16 -31 -63 -76 q-112 -107 -205 -113q-142 -228 -402 -381q-85 -51 -142 -51q-52 0 -81 43zM504 720q0 -89 18 -138q17 -55 43 -99q36 95 53 148q147 443 147 622q0 35 -6 59q-11 47 -42 47q-10 0 -21 -5q-40 -16 -77 -85.5t-61 -164t-39 -194.5q-15 -97 -14 -184q-1 -3 -1 -6z" />
<glyph unicode="W" horiz-adv-x="1286" d="M51 2q-29 43 -29 128q0 104 44 271q0 1 44.5 158.5t73 264t47.5 194.5q30 130 50.5 226.5t26.5 127.5l5 31q7 0 15 2q20 3 37 3q77 0 99 -54q10 -24 10 -64q0 -68 -30 -182q-46 -166 -89 -326.5t-81 -305.5t-55 -208q-29 -110 -29 -168q0 -67 38 -68q6 0 13 2q14 3 31 13 q82 46 147.5 160.5t129.5 298.5q86 293 106 385q29 130 49.5 226.5t26.5 127.5l6 31q7 2 15 2q20 3 38 3q76 0 98 -53q10 -24 10 -64q0 -68 -30 -181l-194 -715q-23 -87 -22 -142q0 -59 25 -82q13 -12 30 -12q19 0 45 15q150 81 278 397q-43 47 -67 125q-19 59 -21 154v22 q0 85 14 179q16 106 44.5 204.5t77 174t106.5 100.5q47 20 84 21q77 0 108 -91q19 -55 18 -135q0 -163 -77 -432q-60 -200 -141 -340q77 19 186 125q51 49 63 49q3 0 3 -4q0 -5 -5 -16q-9 -27 -61 -76q-112 -107 -205 -113q-142 -229 -401 -381q-82 -48 -144 -50q-3 0 -5 -1 q-59 1 -93 51q-33 47 -33 138v20q-100 -97 -207 -158q-85 -51 -142 -51q-52 0 -81 43zM986 720q0 -89 18 -138q18 -57 43 -97q33 83 53 146q145 440 145 620q0 32 -4 55q-10 53 -42 53q-9 0 -21 -5q-40 -16 -77 -85.5t-61 -164t-39 -194.5q-15 -97 -14 -184q-1 -3 -1 -6z " />
<glyph unicode="X" horiz-adv-x="1021" d="M59 1208q29 86 75 144.5t97 81.5q40 18 82 18q12 0 24 -2q55 -6 103 -41t87 -101.5t59 -156.5q14 -62 133 -594q131 156 224.5 374t109.5 466q0 2 21.5 4t49 -1.5t53.5 -21.5q27 -18 35 -56q3 -13 2 -30q0 -31 -10 -75q-123 -453 -465 -754q33 -143 76 -311 q20 -75 44 -75t65 66q26 40 49 85t38.5 81.5t57.5 134.5q30 70 41 70h2q4 -3 4 -20q0 -20 -29 -93q-44 -107 -70.5 -161t-72.5 -129q-85 -136 -168 -136h-6q-86 5 -121 146l-55 221q-8 -7 -53 -41t-56 -43t-49 -39.5t-51 -42.5t-42.5 -39t-43 -43.5t-33 -40t-32 -45 t-21.5 -43.5q-17 -41 -23 -51q-6 0 -16 4q-72 20 -90 78q-5 16 -4 31q0 42 35 82q40 47 116.5 93t175.5 101.5t168 110.5q-136 529 -167 702q-19 101 -61.5 160t-89.5 67q-8 1 -16 1q-39 0 -79 -34q-48 -40 -76 -124q-24 -71 -28 -152q-1 -15 -1 -30q1 -66 15 -136 q18 -86 54 -167.5t98 -157t143 -133.5q13 -9 16 -16.5t-1.5 -11t-12.5 -3.5q-17 0 -50 20q-97 69 -165.5 165t-100.5 202q-32 104 -32 216q0 117 38 226z" />
<glyph unicode="Y" horiz-adv-x="776" d="M24 -254q11 74 58 131q43 49 94 59q10 2 20 2q37 0 62 -30q18 -29 18 -55q0 -6 -1 -12q-5 -32 -31 -52.5t-56 -13.5q-15 3 -28 3q-20 0 -38 -6q-28 -11 -42 -32.5t-13.5 -50t17.5 -54.5q26 -39 61 -39q22 0 48 15q102 61 197 326q18 52 36 110q14 49 80 303 q-44 -91 -98.5 -172.5t-98.5 -122.5q-72 -65 -135 -65q-13 0 -26 3q-79 18 -92 146q-3 24 -3 51q0 116 49 285q118 432 144 543q32 129 52.5 225.5t25.5 128.5l4 31q6 0 14 2q20 3 37 3q76 0 98 -54q10 -24 10 -65q0 -68 -28 -181q-79 -282 -176 -645q-60 -223 -60 -321 q0 -55 19 -70q6 -6 14 -6q17 0 43 24q68 66 152.5 226t119.5 305q12 48 21 65l82 332q34 129 54.5 225.5t23.5 128.5l4 31q6 0 16 2q20 3 37 3q76 0 98 -54q10 -23 10 -63q0 -68 -30 -183q-4 -15 -41 -160q-19 -77 -114 -438.5t-126 -472.5q-34 -122 -78.5 -216t-90 -150 t-94 -91t-92.5 -44q-25 -4 -48 -4q-18 0 -35 2q-40 7 -70.5 27.5t-48.5 49.5q-27 48 -27 102q0 17 2 33z" />
<glyph unicode="Z" horiz-adv-x="1230" d="M22 856q0 4 -1 8q0 75 28 157q29 87 98 161.5t183.5 126t284.5 57.5q20 1 41 2q156 0 360 -43q113 127 225 193q85 48 161 52h11q67 0 107 -40q37 -36 37 -99q0 -12 -1 -24q-7 -60 -41 -109.5t-96 -87t-162 -53.5q-57 -9 -123 -9q-49 0 -104 5q-91 -197 -151 -453 q-65 -272 -183 -471q46 -47 102 -89q55 -42 125 -68q40 -15 72 -15q24 0 45 9q71 31 131 123t125 276q28 73 37 73q5 0 6 -20q1 -4 1 -8q0 -27 -21 -86q-22 -59 -34 -91t-33 -81.5t-36.5 -78.5t-38.5 -66t-44.5 -59.5t-49.5 -44t-59 -34.5q-48 -20 -100 -20q-54 1 -110 21 q-114 40 -204 134q-86 -105 -178 -156q-78 -43 -152 -43q-13 0 -26 1q-89 11 -147 66q-59 55 -63 130v10q0 71 58 150q49 63 133 91q60 20 126 20q26 0 52 -3q94 -11 177 -57q52 138 108 392q56 253 199 466q-43 9 -90 21q-109 26 -205 32q-33 2 -63 3q-59 -1 -107 -9 q-74 -12 -135 -37.5t-102.5 -62.5t-70 -81.5t-40.5 -93.5q-11 -44 -11 -88q1 -5 1 -11q2 -50 16 -99q16 -50 48 -88.5t74 -60.5q42 -20 90 -22q4 0 7 -1q45 0 87 18q46 19 90.5 67.5t76.5 121.5q23 29 37 29q24 0 6 -49q-38 -88 -97 -144.5t-123 -73.5q-38 -10 -76 -10 l-54 5q-64 12 -119 60t-88 122q-25 59 -27 137zM156 102v-9q0 -55 34 -94q36 -43 99 -46h7q131 0 241 229q-90 78 -178 90q-13 2 -25 2q-73 0 -131 -59q-44 -53 -47 -113zM1112 1307q114 -21 192 -24h25q61 1 97 13q44 16 63 40.5t24 64.5q1 8 1 16q0 40 -22 67 q-26 32 -83 36q-4 0 -8 1q-55 0 -137 -46q-71 -39 -152 -168z" />
<glyph unicode="[" horiz-adv-x="858" d="M23 -239q-3 84 9.5 201t44.5 269.5t83 346.5q41 155 82 281t79.5 219t80 162t78.5 114t79 70.5t79 35t81 4.5t81.5 -17t84.5 -34q13 -8 13 -16t-10 -13.5t-20 -1.5q-100 50 -176.5 18t-155 -217t-196.5 -618q-165 -610 -145 -825q13 -151 116 -171q67 -13 189 25 q13 4 14 -12q1 -24 -25 -37q-4 -2 -10 -4q-88 -27 -154 -37t-123 -3t-93 36.5t-59.5 84.5t-26.5 139z" />
<glyph unicode="\" horiz-adv-x="356" d="M29 1292q-17 61 0 82q8 12 17 -13q5 -16 15 -54l330 -1258q14 -60 0 -84q-9 -14 -21 20l-14 50z" />
<glyph unicode="]" horiz-adv-x="856" d="M24 -428q10 13 25 8q101 -49 177.5 -19t155.5 216.5t196 619.5q167 614 146 829q-15 149 -118 168q-67 12 -186 -26q-13 -4 -15 12q-2 24 24 37l11 4q88 27 153.5 37t122.5 3t93 -36.5t59.5 -84t27 -138.5t-9 -201t-44 -269.5t-82.5 -346.5q-41 -155 -82.5 -281t-80 -219 t-79.5 -162.5t-78.5 -114t-79.5 -70t-78.5 -35.5t-80.5 -5t-81.5 17t-84.5 34q-21 10 -11 23z" />
<glyph unicode="^" horiz-adv-x="372" d="M23 1109q-3 7 2 11q44 27 77 55.5t59.5 64.5t38 55t36.5 63q3 7 32 5.5t29 -9.5q5 -82 33 -150t76 -88q5 -2 6.5 -11t-4.5 -14.5t-17 -0.5q-41 18 -87.5 53t-72.5 61l-26 25q-7 -13 -69 -60.5t-99 -64.5q-10 -5 -14 5z" />
<glyph unicode="_" horiz-adv-x="749" d="M1 12q0 3 3 6q18 21 80 21h588q77 0 77 -9q0 -3 -4 -7q-19 -19 -79 -19h-588q-77 0 -77 8z" />
<glyph unicode="`" horiz-adv-x="303" d="M21.5 1282q-1.5 24 13.5 47q27 35 67 34.5t74 -34.5l168 -170l-14 -18l-209 57q-45 13 -71.5 36.5t-28 47.5z" />
<glyph unicode="a" d="M50 520q3 13 7 27q35 134 89.5 234.5t112 152t116.5 74.5q43 17 81 17q14 -1 26 -3q48 -8 81 -41q19 37 40 57t43 22h12q16 0 30 -4q20 -6 45 -20l25 -16q-3 -11 -34 -125t-77.5 -291.5t-87.5 -343.5q-15 -61 -15 -99q0 -43 19 -56q23 -15 54 21q6 8 12 17q26 40 49 85 t38.5 81.5t57.5 134.5q31 70 41 71q6 0 6 -21q0 -23 -28 -93q-43 -105 -70 -159.5t-74 -128.5q-51 -81 -113 -105q-22 -8 -41 -8q-37 0 -68 30q-47 46 -50 156q-37 -88 -70 -129q-52 -65 -113 -65q-12 0 -24 2q-73 15 -115 110q-35 80 -35 189q0 101 30 227zM202 140 q16 -72 51 -72h1l35 22q61 77 119 322q1 4 4.5 17.5t5.5 19.5l94 382q12 52 35 111q-26 41 -59 41q-29 0 -63 -33q-100 -97 -187 -413q-46 -174 -46 -295q0 -57 10 -102z" />
<glyph unicode="b" horiz-adv-x="684" d="M22 179q2 87 33 214q9 37 75 287.5t87 337.5q33 129 53.5 225.5t24.5 128.5l4 31q6 0 14 2q20 3 37 3q76 0 99 -54q10 -24 10 -65q0 -68 -29 -181q-7 -25 -21.5 -81t-19.5 -77q-5 -20 -19 -66t-20 -71q62 104 115 152q71 64 134 64q13 0 26 -3q79 -17 95 -135 q4 -28 4 -61q0 -116 -50 -285q-52 -172 -157 -296.5t-224 -197.5q-58 -36 -106 -51q-27 -8 -52 -8q-19 0 -35 4q-40 12 -60 54q-18 37 -19 111q1 9 1 18zM211 260q-16 -68 -17 -112q0 -60 32 -73q8 -3 17 -3q19 0 42 16q100 65 207 469q60 221 60 320q0 49 -15 68 q-7 9 -17 9q-17 0 -43 -24q-64 -61 -119 -177.5t-92 -269.5l-12 -49q-26 -100 -43 -174z" />
<glyph unicode="c" horiz-adv-x="598" d="M24 334q6 96 37 213q27 103 68.5 187.5t88.5 138.5t98.5 91.5t100.5 51.5q47 13 89 13q2 -1 3 -1q43 0 76 -17.5t50 -47.5q26 -47 26 -101q-1 -18 -3 -36q-12 -75 -62 -136q-42 -50 -98 -60q-11 -2 -21 -1q-42 0 -69 33q-20 27 -20 55q0 22 12 43q24 44 70 44q5 0 11 -1 q15 -2 28 -2q55 -1 87 37q21 24 21 53q0 26 -17 55q-22 36 -58 36q-17 0 -37 -8q-84 -33 -161 -176q-59 -109 -100 -261q-39 -148 -39 -248q1 -27 3 -50q14 -111 56 -153q29 -28 62 -28q17 0 36 8q74 31 145 119t146 259q33 70 42 71q5 0 5 -21q0 -30 -28 -93 q-75 -166 -148 -257.5t-178 -133.5q-53 -21 -102 -22h-5q-46 0 -87 17q-43 18 -74 62q-30 43 -46 107q-11 45 -10 106q0 26 2 54z" />
<glyph unicode="d" d="M50 520q3 13 7 27q35 132 88 231.5t109 151.5t114 76q45 19 85 19q11 0 22 -2q48 -7 82 -38l8 33q33 129 53.5 225.5t24.5 128.5l4 31q5 0 15 2q20 3 37 3q75 0 97 -54q10 -25 11 -65q0 -68 -29 -181q-27 -96 -41 -158q-4 -17 -83.5 -322.5t-94.5 -367.5q-13 -60 -13 -98 q0 -46 20 -58q6 -3 12 -3q20 0 44 32q4 5 7 10q26 40 49 85t38.5 81.5t57.5 134.5q31 70 41 71q6 0 6 -21q0 -23 -28 -93q-43 -105 -70 -159.5t-74 -128.5q-51 -81 -113 -105q-22 -8 -41 -8q-37 0 -68 30q-47 46 -50 156q-37 -88 -70 -129q-52 -65 -113 -65q-12 0 -24 2 q-73 15 -115 110q-35 80 -35 189q0 101 30 227zM202 140q16 -72 51 -72h1l35 22q61 77 119 322l4 18l133 512q-26 40 -58 40q-29 0 -63 -33q-100 -97 -186 -412q-46 -174 -46 -295q0 -57 10 -102z" />
<glyph unicode="e" horiz-adv-x="655" d="M38 168q-17 56 -17 129q0 106 36 250q27 103 72 187.5t97.5 138.5t110.5 91q57 38 113 52q54 14 101 13q1 1 3 1q48 0 84.5 -18.5t53.5 -48.5q13 -24 13 -54q1 -55 -43 -131q-68 -117 -192.5 -233t-264.5 -203q-1 -15 -1 -30q0 -144 62 -214q44 -50 99 -50q29 0 61 15 q74 36 141.5 123t143.5 258q33 70 42 71q5 0 5 -21q0 -28 -29 -93q-75 -167 -144 -256.5t-173 -136.5q-74 -33 -140 -33q-48 1 -90 17q-102 40 -144 176zM211 393q53 35 101 79t83 88t64.5 92t46.5 90q17 44 28 84q10 36 10 62v8q-2 30 -9 50q-17 38 -45 38q-16 0 -36 -12 q-80 -49 -159 -261q-29 -78 -55 -174q-24 -92 -29 -144z" />
<glyph unicode="f" horiz-adv-x="356" d="M-446 -254q10 74 59 131q41 49 91 59q11 2 21 2q37 0 62 -30q18 -29 18 -55q0 -6 -1 -12q-5 -32 -31 -52.5t-56 -13.5q-15 3 -28 3q-20 0 -37 -6q-29 -11 -43 -32.5t-13.5 -50t17.5 -54.5q22 -34 58 -34q13 0 29 5q86 27 166 192q49 102 89 249l233 858q5 29 2.5 35 t-20.5 6h-10q-79 0 -79 10q0 3 3 7q17 20 80 20h18q11 0 15.5 0.5t8.5 4t7 11.5q28 100 69.5 181.5t88 133.5t97 88t98.5 49q45 12 84 12h6q42 -1 74.5 -18.5t49.5 -47.5q26 -47 26 -101q0 -17 -2 -36q-12 -75 -63 -136q-41 -50 -98 -58q-10 -2 -20 -2q-43 0 -68 32 q-19 30 -19 58v11q5 33 32 55q23 18 49 18q6 0 12 -1q15 -2 28 -2q55 0 86 37q20 24 20 52q0 26 -18 56q-22 36 -58 36q-18 0 -39 -9q-85 -35 -163 -185q-44 -85 -79 -196q-7 -31 -4 -37t22 -6h10q79 0 79 -9l-3 -7q-18 -21 -80 -21h-18q-21 0 -27.5 -7.5t-15.5 -43.5h-2 l-232 -858q-33 -124 -77 -218.5t-90 -149.5t-95 -88.5t-94 -40.5q-23 -4 -45 -4q-20 0 -40 3q-39 7 -68.5 26.5t-45.5 45.5q-29 48 -29 104q0 15 3 31z" />
<glyph unicode="g" horiz-adv-x="641" d="M-98 -254q10 74 57 131q41 49 93 59q10 2 20 2q37 0 61 -30q19 -29 19 -56v-11q-5 -32 -31.5 -52.5t-57.5 -13.5q-14 3 -28 3q-19 0 -37 -6q-28 -11 -41.5 -32.5t-13 -50t17.5 -54.5q25 -39 61 -39q19 0 41 11q94 47 180 267q31 78 58 173l10 41q-7 -13 -20 -31 q-52 -65 -113 -65q-11 0 -23 2q-73 14 -115 108q-36 81 -36 191q0 99 29 222l8 32q36 135 90.5 235.5t112.5 152t117 73.5q41 16 78 16q15 0 29 -2q49 -10 81 -43q24 49 53 67q24 14 44 14q6 0 12 -1q25 -5 63 -25l22 -14l-55 -201q-18 -67 -86 -328.5t-119 -453.5 q-33 -122 -77 -216.5t-89.5 -150.5t-94 -90.5t-92.5 -43.5q-26 -4 -50 -4q-18 0 -36 2q-40 7 -70 27.5t-48 49.5q-27 48 -27 102q0 17 3 33zM185 141q16 -72 52 -73h2q17 0 35 22q61 77 119 322l13 49l92 368q10 42 32 111v2q-25 40 -57 40q-28 0 -60 -29q-98 -89 -183 -389 q-3 -13 -7 -27q-48 -176 -48 -298q0 -54 10 -98z" />
<glyph unicode="h" horiz-adv-x="747" d="M2 162q6 66 31 172q63 267 172 684q33 129 53.5 225.5t24.5 128.5l4 31q4 0 14 2q19 3 35 3q78 0 100 -60q10 -26 10 -66q0 -68 -30 -174l-39 -158l-37 -137q62 104 115 152q73 65 135 66q14 0 27 -4q80 -20 91 -156q1 -18 1 -37q0 -117 -47 -289q-44 -164 -72 -285 q-15 -64 -16 -102q0 -43 20 -54q6 -3 12 -3q20 0 44 32q4 5 7 10q37 57 64 113.5t82 187.5q30 71 41 71q2 0 4 -3l2 -18q0 -20 -29 -93q-44 -108 -70.5 -161.5t-72.5 -126.5q-58 -94 -131 -115q-17 -5 -32 -5q-49 0 -79 51q-30 50 -30 134q0 81 28 193l47 186q60 224 60 322 q0 52 -17 68q-7 7 -15 7q-17 0 -42 -24q-122 -116 -195 -385l-26 -99q-112 -442 -113 -448h-20q-43 5 -66 17.5t-37 46.5q-10 24 -10 63q0 17 2 37z" />
<glyph unicode="i" horiz-adv-x="364" d="M49 393q61 239 66 258q55 218 146 218q29 0 63 -23l30 -23q-1 -3 -11 -40.5t-26 -96t-34.5 -127.5t-39.5 -150t-38 -149q-16 -63 -16 -101q0 -43 20 -54q6 -4 13 -4q18 0 42 28l10 14q37 57 64 113.5t82 187.5q31 70 41 71q6 0 6 -21q0 -20 -29 -93 q-44 -108 -70.5 -161.5t-72.5 -126.5q-57 -93 -131 -109q-14 -3 -26 -3q-52 0 -85 54q-32 54 -32 142q0 83 28 196zM186 1023q-9 19 -10 38q0 23 14 45q25 40 81 56q25 7 50 7q30 0 60 -10q53 -19 73 -63q9 -19 9 -37q0 -24 -14 -47q-25 -42 -81 -56q-24 -6 -48 -6 q-31 0 -60 11q-54 19 -74 62z" />
<glyph unicode="j" horiz-adv-x="292" d="M-446 -254q10 74 57 131q42 49 93 59q11 2 20 2q37 0 61 -30q19 -29 19 -56v-11q-5 -32 -31.5 -52.5t-57.5 -13.5q-14 3 -28 3q-19 0 -37 -6q-28 -11 -41.5 -32.5t-13 -50t17.5 -54.5q26 -39 61 -39q21 0 45 13q99 53 190 296q24 65 46 142q25 89 141 565q24 96 51 155 t56 79t55.5 19.5t56.5 -19.5l31 -23l-211 -786q-33 -122 -76.5 -216.5t-89 -150.5t-94 -90.5t-93.5 -43.5q-26 -4 -49 -4q-19 0 -36 2q-40 7 -70.5 27.5t-48.5 49.5q-27 48 -27 102q0 17 3 33zM178 1023q-9 19 -9 37q0 24 15 46q25 41 81 56q25 7 50 7q29 0 58 -10 q54 -19 74 -63q9 -19 9 -38q0 -23 -14 -46q-26 -41 -81 -56q-24 -6 -47 -6q-31 0 -62 11q-53 19 -74 62z" />
<glyph unicode="k" horiz-adv-x="749" d="M3 94q-1 11 -1 24q0 30 5 72q7 60 28 144q33 140 98.5 399.5t71.5 284.5q33 129 53.5 225.5t24.5 128.5l4 31q6 0 16 2q19 3 35 3q78 0 100 -60q10 -26 10 -66q0 -68 -30 -174q-7 -25 -21.5 -81t-19.5 -77l-35 -135q54 96 113.5 157t105.5 77q45 17 82 17q26 0 48 -8 q52 -22 77 -75q23 -49 23 -119v-11q-2 -77 -31 -159q-26 -71 -65.5 -131t-81.5 -98.5t-79 -62.5t-71 -37q24 -180 84 -246q24 -26 47 -26q31 0 62 45l3 5q37 57 64 113.5t82 187.5q30 71 41 71q2 0 4 -3l2 -18q0 -20 -29 -93q-44 -108 -70.5 -161.5t-72.5 -126.5 q-81 -131 -170 -131q-6 0 -12 1q-90 9 -152 148q-55 123 -72 318l5 2q81 19 156.5 91.5t125.5 157.5q58 96 63 207v17q0 75 -33 88q-13 5 -28 0q-28 -8 -61.5 -36.5t-72.5 -79.5t-79 -138t-71 -197l-19 -65q0 -2 -1 -6.5t-1 -6.5q-1 -7 -4.5 -18t-3.5 -12l-117 -455h-18 q-34 4 -54.5 12t-37.5 28t-20 56z" />
<glyph unicode="l" horiz-adv-x="344" d="M29 393q25 101 83 324t78 301q32 129 52.5 225.5t25.5 128.5l4 31q7 0 15 2q19 3 35 3q75 0 98 -58q11 -27 11 -68q0 -67 -28 -174q-50 -179 -219 -848q-15 -62 -15 -100q0 -44 20 -55q6 -4 13 -4q18 0 42 28l10 14q26 40 49 85t38.5 81.5t57.5 134.5q30 71 41 71 q2 0 4 -3q2 -5 2 -18q0 -23 -28 -93q-43 -105 -70 -159.5t-74 -128.5q-57 -93 -130 -109q-14 -3 -27 -3q-53 0 -85 55q-31 53 -31 141q0 82 28 196z" />
<glyph unicode="m" horiz-adv-x="1146" d="M3 68q-1 11 -1 24q0 30 5 71q7 59 28 144q91 384 92 387q33 129 53.5 225.5t24.5 128.5l4 31q6 0 14 2q17 2 33 2q40 -1 65 -17q35 -24 45 -91q2 -15 2 -31q0 -62 -28 -158q-1 -2 -2 -5.5t-2 -4.5q70 124 141 189q41 37 80 53q28 11 52 11q10 1 20 -1q33 -6 55 -39 t30 -93q3 -25 4 -55q0 -44 -7 -98q70 146 155 222q72 65 132 65q15 0 29 -4q81 -24 84 -176v-9q0 -119 -48 -296q-46 -161 -74 -285q-15 -63 -15 -101q0 -44 20 -55q6 -3 12 -3q20 0 44 32q4 5 7 10q26 40 49 85t38.5 81.5t57.5 134.5q30 71 41 71q2 0 4 -3q2 -5 2 -18 q0 -23 -28 -93q-43 -105 -70 -159.5t-74 -128.5q-58 -94 -131 -115q-17 -5 -32 -5q-49 0 -78 51q-30 50 -30 134q0 81 28 193l47 186q66 241 66 335q0 57 -24 61q-16 3 -44 -23q-61 -58 -116.5 -158t-92.5 -227l-13 -47q-4 -8 -4 -15l-8 -32q-31 -123 -67.5 -290t-40.5 -196 q-9 -2 -21 -2h-8q-28 0 -49 6q-24 7 -43 25.5t-27 49.5q-6 23 -6 55q0 12 1 26q3 50 19 117l84 315q65 248 65 341q0 55 -23 55q-15 0 -40 -23q-63 -60 -120.5 -164t-94.5 -234q-2 -4 -2 -10q-7 -21 -10 -39l-8 -32l-121 -480q-6 0 -18 2q-34 3 -54.5 11t-37.5 28t-20 56z " />
<glyph unicode="n" horiz-adv-x="753" d="M2 95v8q0 35 8 81q8 52 25 123q91 384 92 387q33 129 53.5 225.5t24.5 128.5l4 31q4 0 14 2q17 2 33 2q40 -1 64 -17q34 -24 44 -91q2 -14 2 -30q0 -63 -28 -159q0 -1 -1 -3t-1 -3q67 120 137 185q72 65 132 65q15 0 29 -4q81 -24 84 -176v-9q0 -119 -48 -296 q-46 -161 -74 -285q-15 -63 -15 -101q0 -44 20 -55q6 -3 12 -3q20 0 44 32l7 10q26 40 49 85t38.5 81.5t57.5 134.5q30 71 41 71q2 0 4 -3l2 -18q0 -20 -29 -93q-44 -108 -70.5 -161.5t-72.5 -126.5q-58 -94 -131 -115q-17 -5 -32 -5q-49 0 -79 51q-30 50 -30 134 q0 81 28 193l47 186q66 241 66 335q0 57 -24 61q-16 3 -44 -23q-62 -59 -118 -162t-93 -233l-12 -52l-12 -45q-89 -346 -116 -467q-8 0 -19 2q-29 3 -47.5 8.5t-35 18.5t-23 36t-7.5 59z" />
<glyph unicode="o" horiz-adv-x="673" d="M22 246q-2 19 -1 41q-1 41 5 91q8 78 33 169q67 251 193 387q114 122 259 122q16 0 32 -1q39 -2 36 -18q-2 -14 -27 -18q-8 -2 -15 -1h-11q-89 0 -155 -112q-70 -119 -129 -369q-26 -111 -40 -196t-16 -140q-1 -13 -1 -25q0 -38 6 -64q8 -34 23.5 -48t39.5 -13 q89 6 207 424q-48 44 -66 84q-32 63 -40 131q-3 23 -3 44q0 42 11 82q16 58 57 102.5t100 58.5q23 6 43 6q43 -1 73 -27q45 -38 56 -146q2 -19 2 -40q0 -101 -43 -258l-12 -43q55 20 109 74q53 49 64 49q3 0 3 -4q1 -5 -4 -17q-9 -23 -61 -75q-60 -57 -123 -66 q-69 -199 -183.5 -313t-212.5 -117h-7l-45 6q-26 7 -52.5 24.5t-48 45t-37 71.5t-19.5 99zM396 722q0 -74 36 -147q17 -33 41 -57q72 269 72 359q0 17 -3 27q-6 27 -27 27q-3 0 -7 -1q-47 -10 -79 -70q-33 -61 -33 -138z" />
<glyph unicode="p" horiz-adv-x="638" d="M-100 -230q-1 10 -1 21q0 31 5 74q7 59 28 145q99 419 170 684q33 129 53.5 225.5t24.5 128.5l4 31q7 0 15 2q16 2 30 2q57 0 87 -36q26 -30 26 -94q0 -30 -6 -68q25 43 53 78q51 65 110 65q12 0 24 -3q68 -15 106 -108q31 -76 31 -179q0 -108 -34 -245l-5 -20 q-35 -132 -88 -231t-109 -151.5t-114 -76.5q-47 -19 -86 -19q-11 0 -21 1q-48 7 -82 37l-90 -359q-9 0 -19 2q-35 3 -55.5 10.5t-37.5 28t-19 55.5zM133 76q26 -38 57 -38q30 0 64 33q100 97 186 412q52 193 52 319q0 46 -7 83q-13 67 -43 67h-3q-16 -1 -33 -22 q-74 -97 -125 -275q0 -3 -5 -18l-6 -29l-14 -49q-14 -56 -58.5 -230t-64.5 -253z" />
<glyph unicode="q" horiz-adv-x="655" d="M50 520q3 13 7 27q35 134 89.5 234.5t112 152t116.5 74.5q43 17 81 17q13 0 26 -3q49 -8 81 -41q19 37 40 57t43 22h12q16 0 30 -4q20 -6 45 -20l25 -16q-4 -16 -33 -126t-76.5 -289.5t-89.5 -344.5q-18 -71 -27.5 -111.5t-11.5 -48.5t-3.5 -15t-4.5 -19 q-32 -130 -52.5 -226.5t-25.5 -127.5l-4 -31q-6 -3 -16 -3q-23 -4 -42 -4q-72 0 -94 52q-10 25 -10 64q0 69 31 183l29 113l-21 -29q-52 -65 -113 -65q-12 0 -24 2q-73 15 -115 110q-35 80 -35 189q0 101 30 227zM202 140q16 -72 51 -72h1l35 22q46 58 94 227q8 29 14.5 54 t9.5 37t5.5 21.5t3.5 13t2 6.5l94 382q12 52 35 111q-26 41 -59 41q-29 0 -63 -33q-100 -97 -187 -413q-46 -174 -46 -295q0 -57 10 -102z" />
<glyph unicode="r" horiz-adv-x="563" d="M29 379q88 225 153 547q-68 32 -82 62q-5 11 -6 22q0 21 17 45q16 26 40 44t47 25q24 6 44 8q15 2 24 2h8l13 -1q-17 -43 -31 -109q224 -66 266 -84q36 -16 36 -39q0 -4 -1 -8l-154 -633q-15 -62 -15 -100q0 -44 20 -55q6 -4 13 -4q18 0 42 28l10 14q26 40 49 85 t38.5 81.5t57.5 134.5q29 71 41 71q1 0 2 -1q5 -2 5 -20q0 -20 -29 -93q-44 -108 -70.5 -161.5t-72.5 -126.5q-57 -93 -131 -109q-14 -3 -26 -3q-52 0 -85 54q-32 54 -32 142q0 83 28 196l82 365q9 34 9 60q1 10 -1 20q-6 32 -41 45q-62 19 -66 20q-55 -247 -159 -506 q-27 -70 -45 -88q-19 -21 -19 -4t21 74z" />
<glyph unicode="s" horiz-adv-x="581" d="M42 172q12 98 99 178q74 68 205 121q-35 151 -127 293q-63 -171 -119 -305q-19 -54 -39 -78q-9 -11 -12 -2q-3 7 -3 17q0 23 15 63q13 37 59.5 160t69.5 192q-8 8 -10 14q-38 55 -51 105q-8 32 -8 58q1 16 3 28q8 36 28 65q18 25 44 39q26 16 52 18q16 2 31 1q9 -1 18 -1 q23 -2 37 -4l14 -4q-1 -3 -6.5 -20.5t-16 -49t-22.5 -63.5l-33 -96q0 -2 2 -2q65 -74 103 -121.5t79 -117.5t62 -138q76 19 168 29q36 4 56 4q27 0 27 -7q0 -2 -4 -5t-13 -8q-22 -13 -95 -19q-70 -6 -131 -24q19 -74 19 -158q0 -74 -22 -138t-58 -106.5t-82.5 -71 t-94.5 -37.5q-26 -5 -52 -5q-22 0 -44 4q-48 8 -84 34q-65 52 -65 132q-1 12 1 26zM100 176q-1 -12 -2 -23q0 -59 41 -90q21 -17 49 -21q6 -1 12 0q22 0 44 10q28 13 53 40t42.5 76t22.5 111q1 19 1 39q0 52 -9 112q-115 -53 -180 -115q-65 -63 -74 -139z" />
<glyph unicode="t" horiz-adv-x="362" d="M49 393q24 97 67 253t64 241l8 35q1 16 -3 20t-17 4h-10q-79 0 -79 10q0 3 3 7q17 20 80 20h18q20 0 27 16q22 89 35.5 157.5t16.5 91.5l3 24q6 0 14 2q18 3 34 3q71 0 96 -51q14 -29 14 -77q0 -56 -19 -139q-3 -18 2.5 -22.5t22.5 -4.5h10q79 0 79 -9l-3 -7 q-18 -21 -80 -21h-18q-16 0 -23.5 -4t-11.5 -18q-132 -494 -174 -664q-15 -61 -15 -99q0 -43 19 -56q22 -15 53 21q6 8 12 17q37 57 64 113.5t82 187.5q31 70 41 71q6 0 6 -21q0 -20 -29 -93q-44 -108 -70.5 -161.5t-72.5 -126.5q-57 -93 -131 -109q-14 -3 -26 -3 q-52 0 -85 54q-32 54 -32 142q0 83 28 196z" />
<glyph unicode="u" horiz-adv-x="749" d="M49 393q70 284 109 438q20 77 42 126.5t42 73t44 28.5q11 2 22 2q12 0 22 -3q20 -6 47 -22l26 -16q-82 -289 -200 -760q-14 -60 -14 -97q0 -46 21 -58q7 -4 14 -4q19 0 42 28l10 14q125 201 267 688q20 77 42 126.5t42 73t45 28.5q11 2 22 2q12 0 22 -3q20 -6 48 -22 l24 -16q-86 -301 -198 -760q-16 -63 -16 -101q0 -43 20 -54q6 -4 13 -4q18 0 42 28q5 6 10 14q37 57 64 113.5t82 187.5q30 71 41 71q2 0 4 -3l2 -18q0 -20 -29 -93q-44 -108 -70.5 -161.5t-72.5 -126.5q-57 -93 -131 -109q-14 -3 -26 -3q-52 0 -85 54q-32 54 -32 142 q0 83 28 196q0 6 2 8q-71 -174 -139 -288q-57 -94 -131 -110q-14 -3 -27 -3q-53 0 -85 54q-33 55 -33 144q0 83 28 195z" />
<glyph unicode="v" horiz-adv-x="706" d="M44 43q-23 37 -23 110q0 94 38 248q25 95 109 439q20 77 42 126.5t42 72.5t45 28q11 2 22 2q13 0 23 -3q20 -6 47 -22l25 -16q-3 -11 -34 -125t-77.5 -291.5t-87.5 -343.5q-22 -87 -22 -130q0 -39 18 -42q16 -2 53 23q103 72 215 370q-37 30 -59 78q-32 61 -34 143 q0 5 -1 10q1 76 23 144q24 72 71.5 129.5t106.5 71.5q34 9 62 9q72 0 104 -58q20 -38 20 -98q0 -64 -24 -152q-46 -167 -123 -297q83 0 168 82q51 49 63 49q4 0 4 -5q-1 -5 -4 -15q-23 -38 -63 -76q-76 -71 -166 -71q-11 0 -23 1q-126 -199 -334 -352q-101 -76 -161 -76 q-42 0 -65 37zM430 707.5q0 -73.5 27 -123.5q13 -27 39 -56l34 103q78 237 78 330q0 47 -20 56q-4 2 -9 2q-4 0 -8 -1q-34 -7 -67.5 -57t-53.5 -115t-20 -138.5z" />
<glyph unicode="w" horiz-adv-x="1114" d="M42 44q-22 36 -22 107q0 94 39 250q75 306 109 439q20 77 42 126.5t42 72.5t45 28q11 2 22 2q13 0 23 -3q20 -6 47 -22l25 -16q-93 -325 -199 -760q-22 -89 -22 -132q0 -35 15 -39q16 -4 54 22q55 37 100.5 129t110.5 284q24 112 62 248q20 77 42 127.5t42 73.5t44.5 28 t44 -1.5t46.5 -22.5l24 -14q-4 -15 -29.5 -112t-68 -261.5t-82.5 -329.5q-18 -71 -18 -113q0 -59 36 -59h4q21 3 50 23q105 71 217 370q-37 30 -62 78q-31 61 -33 143q0 5 -1 10q1 76 23 144q24 72 71 129.5t106 71.5q34 9 62 9q71 0 103 -58q20 -38 21 -98q0 -64 -24 -152 q-46 -167 -123 -297q83 0 168 82q54 50 65 50q3 0 3 -4q1 -5 -4 -17q-9 -23 -62 -76q-76 -71 -167 -71q-11 0 -23 1q-125 -197 -332 -352q-48 -35 -90 -54q-40 -19 -76 -20h-4q-33 0 -56 18q-24 19 -36 63q-9 33 -9 79q0 16 1 33q-49 -49 -138 -119q-101 -76 -162 -76 q-43 0 -66 38zM835 707.5q0 -73.5 27 -123.5q13 -27 39 -56q22 57 37 103q77 239 77 331q0 44 -18 54q-5 3 -12 3q-3 0 -6 -1q-35 -7 -69 -57t-54.5 -115t-20.5 -138.5z" />
<glyph unicode="x" horiz-adv-x="806" d="M62 730q4 144 42 245q22 59 58.5 94.5t78.5 37.5h6q39 1 77 -23q41 -26 78 -93t59 -164q6 -26 26 -126t33 -158q138 183 160 530q1 2 22.5 4t50 -2t54 -22.5t35.5 -56.5q3 -14 3 -31q0 -31 -11 -74q-33 -119 -110.5 -236.5t-184.5 -205.5q64 -280 69 -297q20 -75 44 -75 t65 66q26 40 49 85t38.5 81.5t57.5 134.5q30 71 41 71q2 0 4 -3l2 -18q0 -23 -28 -93q-43 -105 -70 -159.5t-74 -128.5q-57 -95 -117 -125q-28 -14 -53 -14q-29 0 -55 20q-48 36 -70 127l-53 213q-163 -139 -186 -303l-8 -58h-19q-71 -1 -95 55q-10 23 -10 49q0 35 19 73 q27 55 70 98l-4 8q-46 74 -72 202q-23 112 -23 235q0 18 1 37zM90 748q-1 -23 -2 -47q0 -95 20 -201q24 -132 78 -228q24 21 51.5 41.5t73.5 52.5t60 42q-64 258 -88 383q-35 187 -95 203q-5 1 -10 1q-28 0 -49 -43l-4 -10q-29 -77 -35 -194z" />
<glyph unicode="y" horiz-adv-x="681" d="M-58 -254q11 74 60 131q41 49 92 59q10 2 20 2q37 0 62 -30q18 -29 18 -55q0 -6 -1 -12q-5 -32 -31 -52.5t-56 -13.5q-15 3 -28 3q-20 0 -38 -6q-28 -11 -42 -32.5t-13.5 -50t17.5 -54.5q26 -39 61 -39q21 0 45 13q99 53 190 296q24 65 46 142l94 371q-82 -201 -145 -305 q-57 -94 -131 -110q-14 -3 -27 -3q-53 0 -85 54q-33 55 -33 144q0 83 28 195q70 284 109 438q20 77 42 126.5t42 73t45 28.5q11 2 22 2q12 0 23 -3q19 -6 47 -22l24 -16q-86 -301 -198 -760q-15 -60 -15 -98q0 -44 20 -57q7 -4 14 -4q18 0 40 26q6 7 12 16q129 206 271 703 q0 1 1 3t1 3q23 86 47.5 134.5t53.5 62t54 9t62 -23.5l22 -14l-55 -201q-18 -67 -86 -328.5t-119 -453.5q-33 -122 -76.5 -216.5t-88.5 -150.5t-93.5 -90.5t-93.5 -43.5q-26 -4 -49 -4q-19 0 -36 2q-40 7 -70 27.5t-48 49.5q-29 48 -29 104q0 15 2 31z" />
<glyph unicode="z" horiz-adv-x="520" d="M-131 -430q-12 28 -12 60q0 143 245 358l91 80q-14 40 -50 53q-15 5 -33 5q-27 0 -61 -11q-20 -7 -30 6t-9 30v17q81 77 147.5 160t108.5 154.5t74 140.5t47.5 123t25 95t11.5 63l2 22q-78 -23 -136 -23q-17 0 -32 2q-65 -226 -182 -510q-27 -68 -45 -86q-22 -21 -21 -3 q1 19 23 73q116 292 172 539q-55 20 -75 61q-9 18 -8 36q0 21 13 40q15 26 39 44t47 24.5t43 8.5q15 2 26 2h8l13 -1q-6 -41 -24 -115q65 3 145 18.5t125.5 27t46.5 9.5q8 -21 4.5 -58.5t-10 -79.5t-27 -97t-46 -112.5t-67.5 -123.5t-92 -131.5t-118.5 -137t-147.5 -138.5 v-7q54 20 98 20q62 0 105 -40q164 157 258 283q45 58 56 58q4 0 4 -6q0 -4 -2 -12q0 -2 -1 -4q-3 -19 -49 -84q-80 -106 -243 -262q33 -49 37 -121q1 -10 1 -20q0 -61 -22 -119q-101 -274 -249 -359q-53 -31 -100 -31q-35 0 -67 17q-40 21 -57 62zM-96 -406q18 -41 49 -42 q13 0 29 8q87 42 186 297q34 92 34 154q0 10 -1 18q-66 -58 -74 -66q-122 -111 -185 -211q-45 -72 -45 -122q0 -20 7 -36z" />
<glyph unicode="{" horiz-adv-x="804" d="M25 550q-2 20 18 29q7 3 16 3h29q27 8 46.5 42t39.5 109q35 131 79.5 238.5t91 181.5t98.5 128t102 84t101.5 44.5t96 14t86.5 -12.5q14 -4 15.5 -12.5t-7 -14.5t-18.5 -4q-42 9 -85 -4t-92.5 -56.5t-96.5 -117.5t-97 -197t-94 -284q-35 -124 -143 -166q93 -55 51 -215 q-35 -128 -48 -240t-5 -189.5t28 -142.5t51.5 -99t65 -59t68.5 -24t63 8q13 5 15 -11q4 -24 -21 -39q-5 -3 -10 -5q-53 -21 -108 -23.5t-108.5 16t-99.5 57t-78 107t-46 158t-2 218t53 280.5q22 86 14 132t-41 46q-26 0 -28 20z" />
<glyph unicode="|" horiz-adv-x="466" d="M27 -346l440 1685q18 74 27 74q3 0 6 -6q15 -18 0 -82l-439 -1685q-18 -74 -28 -74q-3 0 -6 6q-14 21 0 82z" />
<glyph unicode="}" horiz-adv-x="819" d="M23 -451.5q7 14.5 24 11.5q47 -10 91 2.5t94 58t97.5 124.5t99 210.5t99.5 308.5q32 121 142 168q-94 52 -49 213q27 101 40 190t12.5 156.5t-11 124.5t-29.5 96t-43 69t-51 46t-55.5 23.5t-54.5 6t-48 -10.5q-12 -5 -15 11q-4 26 23 40l8 4q53 21 108.5 26t111 -9 t103 -47.5t81.5 -97t49.5 -149t4.5 -211.5t-52 -278q-24 -86 -15.5 -133t41.5 -47q27 0 28 -19t-20 -27q-8 -3 -16 -3h-28q-50 -14 -84 -152q-38 -142 -84 -257.5t-93 -195t-99.5 -137t-102.5 -89.5t-102.5 -47t-98 -14t-90.5 13q-23 7 -16 21.5z" />
<glyph unicode="~" horiz-adv-x="468" d="M20 1159q66 88 105 113q87 56 170 -12q37 -29 65.5 -39.5t60 -1t66.5 42.5l23 -15q-33 -56 -71.5 -90t-86.5 -45.5t-98 18.5q-83 47 -123.5 48.5t-89.5 -43.5z" />
<glyph unicode="&#xa1;" horiz-adv-x="460" d="M45 -137q-28 77 21 256q8 33 108 334.5t119 353.5q24 66 52 91t52 7l17 -10l-185 -946q-10 -46 -16 -82t-7 -49l-1 -13q-7 0 -17 -2q-115 -17 -143 60zM285 1072q-20 43 6 83q25 41 80.5 56.5t107.5 -3.5q54 -19 74.5 -62.5t-4.5 -84.5t-81 -55.5t-110 4.5q-53 19 -73 62 z" />
<glyph unicode="&#xa2;" horiz-adv-x="661" d="M22 281q1 109 39 266q29 109 74 197t95.5 142.5t105.5 89.5t105 46t94 4l4 14q18 74 28 75q3 -2 6 -5q14 -24 0 -84l-2 -10q43 -16 64 -53q35 -62 23.5 -137t-62.5 -136q-42 -50 -98.5 -59.5t-87.5 31.5q-23 35 -19 67.5t31 55t59 18.5q76 -11 115.5 35.5t3.5 107.5 q-32 53 -95 28q-84 -33 -161 -176q-59 -109 -100 -261q-50 -188 -36.5 -298t57 -152.5t97.5 -20.5q74 31 144.5 119t148.5 259q31 70 41 71q6 0 6 -21q0 -26 -30 -93q-75 -166 -148 -257.5t-178 -133.5q-18 -7 -47 -14l-14 -62q-18 -71 -28 -72q-3 0 -7 5q-15 23 2 82l10 41 q-68 -6 -120 21.5t-86.5 94t-33.5 175.5z" />
<glyph unicode="&#xa3;" horiz-adv-x="1327" d="M24.5 90q-9.5 44 10.5 95.5t69 97.5q82 72 190.5 64t215.5 -83q46 119 82 258h-84q-77 0 -77 9q0 3 3 6q17 20 80 20h88l35 145q44 200 114 354.5t148 240.5t158.5 125.5t152.5 23t125 -81.5q43 -60 29 -151t-68 -154q-42 -50 -98.5 -59t-87.5 30q-23 36 -18.5 69t32 55 t60.5 17q36 -5 68.5 11t48.5 43t19 60.5t-20 62.5q-86 117 -193 23q-129 -113 -238 -481q-26 -90 -50 -192q-13 -54 -37 -141h95q76 0 76 -9q1 -3 -3 -7q-19 -19 -80 -19h-100q-65 -213 -158 -348q72 -62 186.5 -99.5t182.5 -8.5q71 31 131 123t125 276q28 74 37 73 q5 -1 6 -20q4 -26 -20 -94q-21 -58 -34 -91.5t-33.5 -82t-36 -78t-38.5 -66t-44.5 -59.5t-49.5 -44t-59 -34q-95 -38 -207.5 0.5t-202.5 128.5q-142 -166 -315 -166q-56 0 -103.5 21t-75 57t-37 80zM130 114.5q-6 -52.5 24 -90.5t90 -38q130 0 229 198q-78 64 -163 73.5 t-136 -46.5q-38 -44 -44 -96.5z" />
<glyph unicode="&#xa5;" horiz-adv-x="747" d="M28 997q0 2 1 4q22 60 58.5 95.5t78 37.5t82.5 -23t77.5 -91.5t57.5 -163.5l59 -285q139 182 162 531q0 2 21.5 4t49.5 -2t54 -22.5t34.5 -56.5t-7.5 -105q-33 -118 -107 -232.5t-176 -202.5v-4h96q77 0 77 -9q0 -3 -3 -7q-17 -21 -80 -21h-100l-19 -69h91q77 0 77 -10 q0 -3 -4 -7q-17 -20 -80 -20h-92q-82 -317 -86 -342h-18q-35 4 -55.5 12t-37.5 28.5t-19.5 56t4.5 94.5t28 145v6h-107q-76 0 -76 9q-1 3 3 7q17 21 80 21h110l14 69h-96q-77 0 -77 11q0 2 3 6q17 20 80 20h97q-53 217 -76 338q-35 185 -95 203q-34 10 -58 -38q-3 -6 -5 -13 q-7 -19 -19 -16q-16 5 -2 42z" />
<glyph unicode="&#xa7;" horiz-adv-x="768" d="M26.5 948.5q26.5 158.5 110.5 233.5t164 41q53 -23 57 -40q2 -15 -33 -8q-18 3 -42 13q-58 24 -94 -35q-52 -85 -15 -274q22 -107 72 -232q146 -368 155 -391q38 -93 60 -176t27 -147t-1 -118.5t-23 -93t-39.5 -68.5t-50 -47.5t-55.5 -26t-54 -8t-48 8.5 q-64 24 -102 91.5t-33 140.5q3 64 37.5 103.5t81.5 27.5q39 -11 55.5 -42t7.5 -62.5t-37 -45.5q-45 -22 -59.5 -57.5t3.5 -68t58 -46.5q53 -20 87 29q58 83 5 297q-23 95 -69 209q-49 120 -87 215.5t-71 175.5q-94 243 -67.5 401.5zM322.5 1605.5q26.5 158.5 109.5 234 t164 42.5q64 -28 101 -95.5t32 -146.5q-3 -65 -42.5 -106.5t-88.5 -28.5q-39 9 -56.5 41t-8.5 65.5t38 49.5q67 37 70.5 97.5t-63.5 88.5q-57 23 -92 -35q-53 -85 -17 -272q21 -109 72 -235q35 -85 73 -183.5t84 -208.5q38 -93 59.5 -176t26.5 -147t-1.5 -118.5t-23 -93 t-39.5 -68.5t-50 -47t-55 -25.5t-54.5 -8t-48.5 8.5q-56 22 -58 41q-2 16 36 9q15 -2 34 -9q53 -20 87 28q59 82 7 293q-24 97 -71 213q-148 370 -156 391q-95 243 -68.5 401.5z" />
<glyph unicode="&#xa8;" horiz-adv-x="571" d="M28.5 1195q-19.5 41 4.5 81q25 39 78 53t104 -4q51 -17 71 -59t-3 -82q-25 -38 -78.5 -53t-104.5 4q-52 19 -71.5 60zM345.5 1195q-19.5 41 4.5 81q25 39 78 53t104 -4q51 -17 71 -59t-5 -82q-23 -38 -77 -53t-105 4t-70.5 60z" />
<glyph unicode="&#xab;" horiz-adv-x="579" d="M16.5 417q2.5 29 8.5 29q74 4 166 61t114 109q2 5 11 6.5t15 -4t1 -16.5q-18 -41 -63.5 -97.5t-82.5 -92.5l-36 -37q12 -6 61.5 -78t69.5 -113q2 -6 -1.5 -10.5t-8.5 -4.5t-7 3q-54 84 -113 132.5t-131 80.5q-6 3 -3.5 32zM221 417q2 29 8 29q74 4 166.5 61t114.5 109 q2 5 11 6.5t15 -4t1 -16.5q-18 -41 -64 -97.5t-83 -92.5l-36 -37q12 -6 61.5 -78t69.5 -113q4 -12 -8 -15q-6 -1 -8 3q-54 84 -113 132.5t-131 80.5q-6 3 -4 32z" />
<glyph unicode="&#xac;" horiz-adv-x="423" d="M22 422q0 3 3 6q17 21 79 21h281q79 0 79 -11q0 -2 -3 -6l-37 -143q-18 -74 -27 -75q-3 0 -6 5q-7 9 -7 33t7 49l29 115q-12 -2 -39 -2h-281q-78 0 -78 8z" />
<glyph unicode="&#xad;" horiz-adv-x="628" d="M144 422q0 3 3 6q17 21 80 21h281q79 0 79 -10q0 -3 -3 -7q-18 -18 -80 -18h-281q-79 0 -79 8z" />
<glyph unicode="&#xaf;" horiz-adv-x="628" d="M144 1241q0 3 3 6q18 21 80 21h281q79 0 79 -10q0 -3 -3 -7q-18 -18 -80 -18h-281q-79 0 -79 8z" />
<glyph unicode="&#xb4;" horiz-adv-x="286" d="M20 1137l142 166q29 35 60 48.5t55 5.5t38 -32q21 -39 3.5 -75t-62.5 -54l-223 -80z" />
<glyph unicode="&#xb6;" horiz-adv-x="968" d="M37 854q22 85 72 153.5t109.5 110t130.5 69.5t130 39.5t115 14.5q43 2 53 2q80 -3 97 -75.5t-23 -221.5l-41 -160l-244 -952q-8 0 -18 2q-35 3 -55.5 10.5t-37.5 28t-19.5 56t4.5 94.5t28 145l63 260h-2q-206 3 -308.5 119t-53.5 305zM563.5 -69.5q-2.5 35.5 4.5 94.5 t28 145q99 419 170 684q33 129 53.5 225.5t24.5 128.5l4 31q6 2 14 2q109 17 136 -55.5t-19 -239.5l-41 -160l-244 -952q-8 0 -18 2q-35 3 -55.5 10.5t-37.5 28t-19.5 56z" />
<glyph unicode="&#xb7;" horiz-adv-x="268" d="M30.5 593q-20.5 44 4.5 85q26 40 81.5 55t108.5 -4q54 -19 74.5 -62.5t-4.5 -84.5q-26 -40 -82 -55.5t-109 3.5t-73.5 63z" />
<glyph unicode="&#xb8;" horiz-adv-x="376" d="M23 -408.5q7 6.5 32 13.5q65 17 120.5 67.5t80.5 114.5q21 61 2 89t-65 15q-2 1 -5 2t-10.5 5.5t-10.5 10t-5.5 15t4.5 19.5q28 42 51 98q4 7 11.5 5.5t14.5 -7.5t5 -10q-24 -65 -47 -101q70 18 129 0.5t79 -63.5t-18 -117q-45 -78 -150.5 -126t-177.5 -46q-25 0 -36 4.5 t-4 11z" />
<glyph unicode="&#xbb;" horiz-adv-x="579" d="M109 188q18 41 63.5 98t81.5 94l37 36q-12 6 -61.5 77.5t-69.5 112.5q-4 12 8 15q6 1 8 -3q53 -84 112 -131.5t132 -80.5q6 -3 4 -32.5t-8 -29.5q-74 -4 -166.5 -61t-114.5 -109q-2 -5 -10.5 -6.5t-14.5 4t-1 16.5zM313 188q18 41 64 98t83 94l36 36q-12 6 -61.5 77.5 t-69.5 112.5q-4 12 8 15q6 1 8 -3q53 -84 112 -131.5t132 -80.5q6 -3 4 -32.5t-8 -29.5q-74 -4 -166.5 -61t-114.5 -109q-2 -5 -11 -6.5t-15 4t-1 16.5z" />
<glyph unicode="&#xc0;" horiz-adv-x="1218" d="M6.5 71.5q-2.5 51.5 30.5 107t92.5 107t159 92t219.5 58.5l31 74q75 191 149 339t135.5 239.5t121 150.5t106 81.5t88.5 22.5l8 60q6 0 14 2q108 15 135 -50.5t-18 -246.5q-7 -25 -21.5 -81t-19.5 -77q-4 -17 -83.5 -322.5t-94.5 -367.5q-30 -135 7 -156q25 -14 57 29 q4 5 7 10q37 57 64 113.5t82 187.5q36 86 45 68q2 -5 2 -18q0 -23 -31 -93q-44 -107 -70 -161t-71 -127q-58 -94 -131 -110q-72 -16 -112 52q-61 104 -3 338q0 7 4 19h-219q-71 -166 -165 -280.5t-182.5 -159.5t-167 -42.5t-130.5 54.5q-36 36 -38.5 87.5zM48.5 55.5 q6.5 -28.5 27.5 -49.5q77 -77 189 27.5t227 361.5q-74 -13 -140.5 -35.5t-116 -51t-89 -61t-62 -66t-32.5 -65.5t-3.5 -60.5zM705 449h213q21 83 69 267t78 302q33 131 63 276q-64 -24 -159 -210t-250 -603q-2 -7 -7.5 -18t-6.5 -14zM1030.5 1632q-1.5 24 13.5 47 q27 35 67.5 34.5t74.5 -34.5l168 -170l-15 -18l-209 57q-45 13 -71.5 36.5t-28 47.5z" />
<glyph unicode="&#xc1;" horiz-adv-x="1218" d="M6.5 71.5q-2.5 51.5 30.5 107t92.5 107t159 92t219.5 58.5l31 74q75 191 149 339t135.5 239.5t121 150.5t106 81.5t88.5 22.5l8 60q6 0 14 2q108 15 135 -50.5t-18 -246.5q-7 -25 -21.5 -81t-19.5 -77q-4 -17 -83.5 -322.5t-94.5 -367.5q-30 -135 7 -156q25 -14 57 29 q4 5 7 10q37 57 64 113.5t82 187.5q36 86 45 68q2 -5 2 -18q0 -23 -31 -93q-44 -107 -70 -161t-71 -127q-58 -94 -131 -110q-72 -16 -112 52q-61 104 -3 338q0 7 4 19h-219q-71 -166 -165 -280.5t-182.5 -159.5t-167 -42.5t-130.5 54.5q-36 36 -38.5 87.5zM48.5 55.5 q6.5 -28.5 27.5 -49.5q77 -77 189 27.5t227 361.5q-74 -13 -140.5 -35.5t-116 -51t-89 -61t-62 -66t-32.5 -65.5t-3.5 -60.5zM705 449h213q21 83 69 267t78 302q33 131 63 276q-64 -24 -159 -210t-250 -603q-2 -7 -7.5 -18t-6.5 -14zM1102 1505l141 166q29 35 60.5 48.5 t55.5 6t38 -31.5q21 -39 3 -75t-63 -54l-223 -80z" />
<glyph unicode="&#xc2;" horiz-adv-x="1218" d="M6.5 71.5q-2.5 51.5 30.5 107t92.5 107t159 92t219.5 58.5l31 74q75 191 149 339t135.5 239.5t121 150.5t106 81.5t88.5 22.5l8 60q6 0 14 2q108 15 135 -50.5t-18 -246.5q-7 -25 -21.5 -81t-19.5 -77q-4 -17 -83.5 -322.5t-94.5 -367.5q-30 -135 7 -156q25 -14 57 29 q4 5 7 10q37 57 64 113.5t82 187.5q36 86 45 68q2 -5 2 -18q0 -23 -31 -93q-44 -107 -70 -161t-71 -127q-58 -94 -131 -110q-72 -16 -112 52q-61 104 -3 338q0 7 4 19h-219q-71 -166 -165 -280.5t-182.5 -159.5t-167 -42.5t-130.5 54.5q-36 36 -38.5 87.5zM48.5 55.5 q6.5 -28.5 27.5 -49.5q77 -77 189 27.5t227 361.5q-74 -13 -140.5 -35.5t-116 -51t-89 -61t-62 -66t-32.5 -65.5t-3.5 -60.5zM705 449h213q21 83 69 267t78 302q33 131 63 276q-64 -24 -159 -210t-250 -603q-2 -7 -7.5 -18t-6.5 -14zM1009 1481q0 5 3 8q57 35 101 80.5 t61 73t49 83.5q3 7 32 5.5t29 -9.5q5 -82 33 -149.5t76 -87.5q5 -2 6.5 -11t-4.5 -15t-17 -1q-41 18 -87.5 53t-72.5 61l-26 25q-7 -13 -68.5 -60t-99.5 -64q-6 -3 -10.5 0t-4.5 8z" />
<glyph unicode="&#xc3;" horiz-adv-x="1218" d="M6.5 71.5q-2.5 51.5 30.5 107t92.5 107t159 92t219.5 58.5l31 74q75 191 149 339t135.5 239.5t121 150.5t106 81.5t88.5 22.5l8 60q6 0 14 2q108 15 135 -50.5t-18 -246.5q-7 -25 -21.5 -81t-19.5 -77q-4 -17 -83.5 -322.5t-94.5 -367.5q-30 -135 7 -156q25 -14 57 29 q4 5 7 10q37 57 64 113.5t82 187.5q36 86 45 68q2 -5 2 -18q0 -23 -31 -93q-44 -107 -70 -161t-71 -127q-58 -94 -131 -110q-72 -16 -112 52q-61 104 -3 338q0 7 4 19h-219q-71 -166 -165 -280.5t-182.5 -159.5t-167 -42.5t-130.5 54.5q-36 36 -38.5 87.5zM48.5 55.5 q6.5 -28.5 27.5 -49.5q77 -77 189 27.5t227 361.5q-74 -13 -140.5 -35.5t-116 -51t-89 -61t-62 -66t-32.5 -65.5t-3.5 -60.5zM705 449h213q21 83 69 267t78 302q33 131 63 276q-64 -24 -159 -210t-250 -603q-2 -7 -7.5 -18t-6.5 -14zM979 1548q65 88 104 113q87 56 170 -12 q37 -29 65.5 -39.5t60.5 -1t67 42.5l22 -15q-33 -56 -71.5 -90t-86.5 -45t-98 19q-83 46 -123.5 47.5t-89.5 -43.5z" />
<glyph unicode="&#xc4;" horiz-adv-x="1218" d="M6.5 71.5q-2.5 51.5 30.5 107t92.5 107t159 92t219.5 58.5l31 74q75 191 149 339t135.5 239.5t121 150.5t106 81.5t88.5 22.5l8 60q6 0 14 2q108 15 135 -50.5t-18 -246.5q-7 -25 -21.5 -81t-19.5 -77q-4 -17 -83.5 -322.5t-94.5 -367.5q-30 -135 7 -156q25 -14 57 29 q4 5 7 10q37 57 64 113.5t82 187.5q36 86 45 68q2 -5 2 -18q0 -23 -31 -93q-44 -107 -70 -161t-71 -127q-58 -94 -131 -110q-72 -16 -112 52q-61 104 -3 338q0 7 4 19h-219q-71 -166 -165 -280.5t-182.5 -159.5t-167 -42.5t-130.5 54.5q-36 36 -38.5 87.5zM48.5 55.5 q6.5 -28.5 27.5 -49.5q77 -77 189 27.5t227 361.5q-74 -13 -140.5 -35.5t-116 -51t-89 -61t-62 -66t-32.5 -65.5t-3.5 -60.5zM705 449h213q21 83 69 267t78 302q33 131 63 276q-64 -24 -159 -210t-250 -603q-2 -7 -7.5 -18t-6.5 -14zM915.5 1563.5q-19.5 41.5 4.5 81.5 q25 39 78 53t104 -4q51 -17 70.5 -59.5t-3.5 -82.5q-25 -39 -78 -53t-104 4q-52 19 -71.5 60.5zM1232.5 1563.5q-19.5 41.5 4.5 81.5q25 39 78 53t104 -4q51 -17 71 -59.5t-5 -82.5q-23 -38 -77 -53t-105 4t-70.5 60.5z" />
<glyph unicode="&#xc5;" horiz-adv-x="1218" d="M6.5 71.5q-2.5 51.5 30.5 107t92.5 107t159 92t219.5 58.5l31 74q75 191 149 339t135.5 239.5t121 150.5t106 81.5t88.5 22.5l8 60q6 0 14 2q108 15 135 -50.5t-18 -246.5q-7 -25 -21.5 -81t-19.5 -77q-4 -17 -83.5 -322.5t-94.5 -367.5q-30 -135 7 -156q25 -14 57 29 q4 5 7 10q37 57 64 113.5t82 187.5q36 86 45 68q2 -5 2 -18q0 -23 -31 -93q-44 -107 -70 -161t-71 -127q-58 -94 -131 -110q-72 -16 -112 52q-61 104 -3 338q0 7 4 19h-219q-71 -166 -165 -280.5t-182.5 -159.5t-167 -42.5t-130.5 54.5q-36 36 -38.5 87.5zM48.5 55.5 q6.5 -28.5 27.5 -49.5q77 -77 189 27.5t227 361.5q-74 -13 -140.5 -35.5t-116 -51t-89 -61t-62 -66t-32.5 -65.5t-3.5 -60.5zM705 449h213q21 83 69 267t78 302q33 131 63 276q-64 -24 -159 -210t-250 -603q-2 -7 -7.5 -18t-6.5 -14zM1069.5 1569.5q-26.5 55.5 5.5 109.5 q32 52 105.5 72t140.5 -4q69 -25 95 -81t-7 -110q-32 -53 -104.5 -72t-139.5 5q-69 25 -95.5 80.5zM1185.5 1594.5q-3.5 -43.5 10.5 -66.5q15 -23 38.5 -13.5t43.5 46.5q19 37 22 80.5t-12 66.5q-14 23 -37 13.5t-43 -46.5q-19 -37 -22.5 -80.5z" />
<glyph unicode="&#xc6;" horiz-adv-x="1658" d="M23.5 105.5q-4.5 60.5 17.5 118t61 102.5q41 51 99 60t90 -32q22 -35 17.5 -67.5t-31.5 -54.5t-60 -17q-36 4 -71 -13t-54.5 -46t-22.5 -63.5t27 -63.5q88 -93 212 49q114 131 231 432q75 191 149 339t135.5 239.5t121 150.5t106 81.5t88.5 22.5l8 60q6 0 14 2 q127 19 144 -80q98 51 205.5 50t183.5 -56q46 -33 64.5 -77.5t10.5 -87.5t-35.5 -84.5t-68.5 -71t-94 -43.5t-105 -5q-24 4 -33 13t-3 18q4 5 14.5 9t19.5 6l9 1q62 -11 115.5 6t83.5 52.5t43.5 77.5t-1 85.5t-53.5 71.5q-50 37 -107.5 41t-110 -22.5t-99 -85.5t-74.5 -142 l-19 -67q-26 -130 19.5 -216.5t161.5 -86.5q23 0 32 -16q11 -21 -28 -31q-14 -3 -33 -5q-20 -2 -57 -2q-99 -9 -170 -91t-103 -199q-22 -71 -13.5 -140t34.5 -122.5t80 -83.5t124 -23q51 5 105 40t97 81.5t86 110t70.5 113t53.5 101.5q34 69 42 70q5 1 5 -20q0 -30 -28 -93 q-29 -64 -56 -114.5t-70.5 -113.5t-89 -106t-109.5 -76.5t-134 -41.5q-72 -9 -134 1.5t-106.5 36t-79 63.5t-50 85.5t-18.5 102t13 112.5l6 25l10 37h-223q-55 -130 -125 -228t-139.5 -150.5t-137.5 -74.5t-124.5 -9t-95.5 54q-38 41 -42.5 101.5zM705 449h215l145 569 q33 131 63 276q-64 -24 -160.5 -210.5t-250.5 -602.5zM1153 647q38 18 84 31q-43 17 -66 35z" />
<glyph unicode="&#xc7;" horiz-adv-x="645" d="M21.5 394.5q-0.5 133.5 44.5 312.5q37 141 90.5 258.5t113 196t124.5 136t126.5 84.5t117.5 35t99.5 -6.5t69.5 -46.5q43 -61 28.5 -151t-67.5 -154q-43 -50 -100 -59t-88 30q-23 36 -19 69t31.5 55t60.5 17q36 -5 68.5 11t49 43.5t19.5 60.5t-20 62q-43 58 -127 20 q-106 -47 -211 -218q-112 -182 -186 -454q-59 -229 -39.5 -376t79 -214t124.5 -40q75 31 145.5 118.5t146.5 259.5q31 70 42 71q6 0 6 -21q0 -28 -29 -93q-77 -169 -149 -259t-179 -132q-24 -11 -67 -18q-20 -50 -41 -84q70 18 129 0.5t79 -63.5t-18 -117 q-45 -78 -150.5 -126t-177.5 -46q-25 0 -36 4t-4 10.5t32 13.5q65 17 120.5 68t80.5 115q21 61 1.5 89t-65.5 15q-2 1 -4.5 2t-10 5.5t-11 9.5t-5.5 14.5t5 19.5q30 51 39 70q-73 2 -132.5 46.5t-97 133.5t-38 222.5z" />
<glyph unicode="&#xc8;" horiz-adv-x="798" d="M22 237.5q-3 54.5 13 112.5q34 133 128 213.5t214 114.5q-109 40 -153 142.5t-5 232.5q31 107 107.5 185t166 110t182.5 26t159 -55q46 -33 64.5 -77.5t10.5 -87.5t-35.5 -84.5t-68.5 -71t-94 -43.5t-105 -5q-24 4 -33.5 13t-3.5 18q4 5 14.5 9t19.5 6l9 1 q62 -11 115.5 6t84 52.5t43.5 77.5t-1 85.5t-53 71.5q-52 39 -112.5 41.5t-115 -27t-101 -95.5t-71.5 -158q-22 -92 -16.5 -167.5t54 -124t132.5 -48.5q23 0 32 -16q12 -20 -27 -31q-14 -3 -33 -5q-20 -2 -58 -2q-99 -9 -169.5 -90.5t-102.5 -199.5q-22 -71 -13.5 -140 t34.5 -122.5t80 -83.5t124 -23q51 5 105 40t97 81.5t86 110t70.5 113t53.5 101.5q34 69 42 70q5 1 5 -20q0 -28 -29 -93q-24 -53 -46 -95t-54.5 -95.5t-68.5 -94t-79.5 -77.5t-97 -60t-112.5 -30q-72 -9 -134 1.5t-106.5 36t-79 63.5t-50 85.5t-18.5 102zM451.5 1610 q-1.5 24 13.5 47q27 35 67 34.5t74 -34.5l168 -170l-14 -19l-209 58q-45 13 -71.5 36.5t-28 47.5z" />
<glyph unicode="&#xc9;" horiz-adv-x="798" d="M22 237.5q-3 54.5 13 112.5q34 133 128 213.5t214 114.5q-109 40 -153 142.5t-5 232.5q31 107 107.5 185t166 110t182.5 26t159 -55q46 -33 64.5 -77.5t10.5 -87.5t-35.5 -84.5t-68.5 -71t-94 -43.5t-105 -5q-24 4 -33.5 13t-3.5 18q4 5 14.5 9t19.5 6l9 1 q62 -11 115.5 6t84 52.5t43.5 77.5t-1 85.5t-53 71.5q-52 39 -112.5 41.5t-115 -27t-101 -95.5t-71.5 -158q-22 -92 -16.5 -167.5t54 -124t132.5 -48.5q23 0 32 -16q12 -20 -27 -31q-14 -3 -33 -5q-20 -2 -58 -2q-99 -9 -169.5 -90.5t-102.5 -199.5q-22 -71 -13.5 -140 t34.5 -122.5t80 -83.5t124 -23q51 5 105 40t97 81.5t86 110t70.5 113t53.5 101.5q34 69 42 70q5 1 5 -20q0 -28 -29 -93q-24 -53 -46 -95t-54.5 -95.5t-68.5 -94t-79.5 -77.5t-97 -60t-112.5 -30q-72 -9 -134 1.5t-106.5 36t-79 63.5t-50 85.5t-18.5 102zM483 1485l142 166 q29 35 60 48.5t55 5.5t38 -32q21 -39 3.5 -75t-62.5 -54l-223 -80z" />
<glyph unicode="&#xca;" horiz-adv-x="798" d="M22 237.5q-3 54.5 13 112.5q34 133 128 213.5t214 114.5q-109 40 -153 142.5t-5 232.5q31 107 107.5 185t166 110t182.5 26t159 -55q46 -33 64.5 -77.5t10.5 -87.5t-35.5 -84.5t-68.5 -71t-94 -43.5t-105 -5q-24 4 -33.5 13t-3.5 18q4 5 14.5 9t19.5 6l9 1 q62 -11 115.5 6t84 52.5t43.5 77.5t-1 85.5t-53 71.5q-52 39 -112.5 41.5t-115 -27t-101 -95.5t-71.5 -158q-22 -92 -16.5 -167.5t54 -124t132.5 -48.5q23 0 32 -16q12 -20 -27 -31q-14 -3 -33 -5q-20 -2 -58 -2q-99 -9 -169.5 -90.5t-102.5 -199.5q-22 -71 -13.5 -140 t34.5 -122.5t80 -83.5t124 -23q51 5 105 40t97 81.5t86 110t70.5 113t53.5 101.5q34 69 42 70q5 1 5 -20q0 -28 -29 -93q-24 -53 -46 -95t-54.5 -95.5t-68.5 -94t-79.5 -77.5t-97 -60t-112.5 -30q-72 -9 -134 1.5t-106.5 36t-79 63.5t-50 85.5t-18.5 102zM451 1457 q-3 7 2 11q44 27 77 55.5t59.5 64.5t38 55t36.5 63q3 7 32 5.5t29 -9.5q5 -82 33 -150t76 -88q5 -2 6.5 -11t-4.5 -14.5t-17 -0.5q-41 18 -87.5 53t-72.5 61l-26 25q-7 -13 -69 -60.5t-99 -64.5q-10 -5 -14 5z" />
<glyph unicode="&#xcb;" horiz-adv-x="798" d="M22 237.5q-3 54.5 13 112.5q34 133 128 213.5t214 114.5q-109 40 -153 142.5t-5 232.5q31 107 107.5 185t166 110t182.5 26t159 -55q46 -33 64.5 -77.5t10.5 -87.5t-35.5 -84.5t-68.5 -71t-94 -43.5t-105 -5q-24 4 -33.5 13t-3.5 18q4 5 14.5 9t19.5 6l9 1 q62 -11 115.5 6t84 52.5t43.5 77.5t-1 85.5t-53 71.5q-52 39 -112.5 41.5t-115 -27t-101 -95.5t-71.5 -158q-22 -92 -16.5 -167.5t54 -124t132.5 -48.5q23 0 32 -16q12 -20 -27 -31q-14 -3 -33 -5q-20 -2 -58 -2q-99 -9 -169.5 -90.5t-102.5 -199.5q-22 -71 -13.5 -140 t34.5 -122.5t80 -83.5t124 -23q51 5 105 40t97 81.5t86 110t70.5 113t53.5 101.5q34 69 42 70q5 1 5 -20q0 -28 -29 -93q-24 -53 -46 -95t-54.5 -95.5t-68.5 -94t-79.5 -77.5t-97 -60t-112.5 -30q-72 -9 -134 1.5t-106.5 36t-79 63.5t-50 85.5t-18.5 102zM354 1539 q-20 41 4 81q25 38 78.5 53t104.5 -4q51 -17 70.5 -59t-3.5 -82q-25 -39 -78 -53t-104 4q-52 19 -72 60zM670.5 1539q-19.5 41 5.5 81q25 39 78 53t104 -4q51 -17 71 -59t-5 -82q-23 -38 -77.5 -53t-105.5 4t-70.5 60z" />
<glyph unicode="&#xcc;" horiz-adv-x="727" d="M25 167.5q13 97.5 84 168.5q47 45 104 49.5t86 -37.5q33 -52 -0.5 -99t-85.5 -36q-42 10 -76.5 -6.5t-51 -46.5t-14 -67t28.5 -64q81 -85 173 -13q131 102 225 472l2 10q19 74 125 520q57 232 73 340q-133 -38 -261 -132t-199 -222q-77 -133 -74 -251.5t92 -138.5 q69 -14 133.5 48.5t97.5 158.5q21 29 35 31q28 0 10 -49q-17 -49 -44 -92.5t-64 -80.5t-88.5 -54t-108.5 -7q-72 13 -126 80.5t-63.5 168t56.5 220.5q167 291 613 363v2h4q8 0 28 4q96 9 120 -58.5t-21 -240.5q-6 -23 -72 -295.5t-78 -318.5q-28 -117 -70 -212.5 t-88.5 -158.5t-98.5 -106.5t-103 -61.5t-99 -19t-88.5 17t-70.5 51q-58 66 -45 163.5zM559.5 1671q-1.5 24 13.5 47q27 35 67.5 34.5t74.5 -34.5l168 -170l-15 -18l-209 57q-45 13 -71.5 36.5t-28 47.5z" />
<glyph unicode="&#xcd;" horiz-adv-x="727" d="M25 167.5q13 97.5 84 168.5q47 45 104 49.5t86 -37.5q33 -52 -0.5 -99t-85.5 -36q-42 10 -76.5 -6.5t-51 -46.5t-14 -67t28.5 -64q81 -85 173 -13q131 102 225 472l2 10q19 74 125 520q57 232 73 340q-133 -38 -261 -132t-199 -222q-77 -133 -74 -251.5t92 -138.5 q69 -14 133.5 48.5t97.5 158.5q21 29 35 31q28 0 10 -49q-17 -49 -44 -92.5t-64 -80.5t-88.5 -54t-108.5 -7q-72 13 -126 80.5t-63.5 168t56.5 220.5q167 291 613 363v2h4q8 0 28 4q96 9 120 -58.5t-21 -240.5q-6 -23 -72 -295.5t-78 -318.5q-28 -117 -70 -212.5 t-88.5 -158.5t-98.5 -106.5t-103 -61.5t-99 -19t-88.5 17t-70.5 51q-58 66 -45 163.5zM588 1524l141 166q29 35 60.5 48.5t55.5 5.5t38 -32q21 -39 3 -75t-63 -54l-223 -80z" />
<glyph unicode="&#xce;" horiz-adv-x="727" d="M25 167.5q13 97.5 84 168.5q47 45 104 49.5t86 -37.5q33 -52 -0.5 -99t-85.5 -36q-42 10 -76.5 -6.5t-51 -46.5t-14 -67t28.5 -64q81 -85 173 -13q131 102 225 472l2 10q19 74 125 520q57 232 73 340q-133 -38 -261 -132t-199 -222q-77 -133 -74 -251.5t92 -138.5 q69 -14 133.5 48.5t97.5 158.5q21 29 35 31q28 0 10 -49q-17 -49 -44 -92.5t-64 -80.5t-88.5 -54t-108.5 -7q-72 13 -126 80.5t-63.5 168t56.5 220.5q167 291 613 363v2h4q8 0 28 4q96 9 120 -58.5t-21 -240.5q-6 -23 -72 -295.5t-78 -318.5q-28 -117 -70 -212.5 t-88.5 -158.5t-98.5 -106.5t-103 -61.5t-99 -19t-88.5 17t-70.5 51q-58 66 -45 163.5zM575 1499q0 5 3 8q35 22 65.5 48t47.5 43.5t40 51.5t29 45t28 50q3 7 32.5 5.5t29.5 -9.5q5 -83 32.5 -150.5t75.5 -87.5q5 -2 6.5 -11t-4 -14.5t-16.5 -0.5q-41 18 -87.5 53t-72.5 60 l-26 26q-7 -13 -69 -60.5t-99 -64.5q-6 -3 -10.5 0t-4.5 8z" />
<glyph unicode="&#xcf;" horiz-adv-x="727" d="M25 167.5q13 97.5 84 168.5q47 45 104 49.5t86 -37.5q33 -52 -0.5 -99t-85.5 -36q-42 10 -76.5 -6.5t-51 -46.5t-14 -67t28.5 -64q81 -85 173 -13q131 102 225 472l2 10q19 74 125 520q57 232 73 340q-133 -38 -261 -132t-199 -222q-77 -133 -74 -251.5t92 -138.5 q69 -14 133.5 48.5t97.5 158.5q21 29 35 31q28 0 10 -49q-17 -49 -44 -92.5t-64 -80.5t-88.5 -54t-108.5 -7q-72 13 -126 80.5t-63.5 168t56.5 220.5q167 291 613 363v2h4q8 0 28 4q96 9 120 -58.5t-21 -240.5q-6 -23 -72 -295.5t-78 -318.5q-28 -117 -70 -212.5 t-88.5 -158.5t-98.5 -106.5t-103 -61.5t-99 -19t-88.5 17t-70.5 51q-58 66 -45 163.5zM483 1563.5q-20 41.5 4 81.5q25 38 78.5 53t104.5 -4q51 -17 70.5 -59.5t-3.5 -82.5q-25 -39 -78 -53t-104 4q-52 19 -72 60.5zM799.5 1563.5q-19.5 41.5 5.5 81.5q25 39 78 53t104 -4 q51 -17 71 -59.5t-5 -82.5q-23 -38 -77.5 -53t-105.5 4t-70.5 60.5z" />
<glyph unicode="&#xd0;" horiz-adv-x="933" d="M21.5 154q-9.5 83 42 163t147.5 121l86 344h-43q-80 0 -79 10l3 5q17 20 80 20h49l12 45q33 129 55 233.5t28 144.5l6 40q4 2 14 2q108 17 135 -55.5t-20 -239.5l-41 -170h43q78 0 78 -9q0 -3 -3 -7q-19 -19 -79 -19h-48l-192 -743q-7 2 -19 2q-34 3 -54.5 11t-37 28.5 t-19.5 56t4 94.5t28 144q0 4 2 6q-74 -39 -106 -106.5t-18.5 -130t60.5 -95.5q50 -37 109.5 -47t130.5 18t138.5 94.5t134.5 198.5t116 314q42 154 45 281t-24.5 207.5t-76.5 134.5t-105.5 74.5t-117.5 16.5q-70 -6 -140.5 -42t-127.5 -90.5t-94 -125.5t-46.5 -143.5 t22.5 -148.5t106 -136q11 -9 13.5 -18t-0.5 -14l-3 -5q-27 3 -55 31q-69 56 -100 133.5t-24 156t45.5 157.5t100.5 141.5t149 104.5t183 49q69 5 130 -1.5t119 -29t103 -61t77 -100.5t44.5 -143t2 -194t-45.5 -248q-37 -141 -92.5 -254.5t-118.5 -187t-133.5 -124 t-139.5 -71t-135.5 -22t-122.5 15.5t-100 49q-71 51 -80.5 134z" />
<glyph unicode="&#xd1;" horiz-adv-x="921" d="M23 1163.5q10 71.5 41.5 129.5t91.5 97t135 46q66 5 112.5 -12t79.5 -64.5t39 -130.5t-10 -209q107 225 209 317q89 79 161 62q81 -19 93 -152q11 -125 -45 -329q-113 -406 -189 -699q-33 -131 6 -157q25 -17 57 19q8 8 15 19q15 24 29.5 50.5t31 64t27.5 63t34 81 t36 85.5q31 70 41 71q6 0 6 -21q0 -28 -29 -93q-3 -8 -16 -39.5t-16.5 -39.5t-14 -34t-14.5 -35t-14 -31t-15 -32.5t-14 -29t-16.5 -31t-16.5 -28.5t-18 -31q-57 -93 -131 -109q-72 -16 -112 53q-61 105 -3 338q21 83 74.5 281t79.5 297q90 332 45 388q-19 23 -60 -15 q-61 -58 -138 -196.5t-120 -275.5l-8 -34q-6 -23 -34.5 -136.5t-58 -229t-44.5 -179.5q-20 -79 -37.5 -133.5t-40.5 -98.5t-48.5 -62.5t-58.5 -16t-73 31.5l-13 11q33 88 107 378l133 519q36 146 52 242t14 160.5t-25.5 91t-69.5 22.5q-82 -8 -139 -76.5t-48 -143t93 -96.5 q32 -9 49.5 -36.5t11.5 -60.5t-36 -56q-41 -29 -93 1.5t-71 92.5q-24 70 -14 141.5zM522 1548q66 88 105 113q87 56 170 -12q37 -29 65.5 -39.5t60 -1t66.5 42.5l23 -15q-33 -56 -71.5 -90t-86.5 -45t-98 19q-83 46 -123.5 47.5t-89.5 -43.5z" />
<glyph unicode="&#xd2;" horiz-adv-x="935" d="M25.5 429.5q9.5 129.5 50.5 287.5q92 348 270.5 549.5t390.5 183.5q40 -4 36 -19q-3 -14 -30 -19l-14 -1q-140 13 -267.5 -181.5t-205.5 -522.5q-86 -362 -70 -533t136 -176q75 -1 148.5 83t139.5 238q-129 62 -190 252q-30 93 -34 196.5t17 197t59 173t94 132.5t120 69 q116 28 191 -41.5t91 -224.5t-45 -391q-53 -197 -133 -344q94 31 195 147q62 74 62 50q0 -6 -3 -15q-13 -33 -55 -80q-105 -120 -221 -139q-101 -172 -226 -266t-237 -88q-61 4 -112 32t-90.5 88t-58 146.5t-9 216zM429 810q-7 -120 30 -228q58 -174 164 -232 q54 135 100 301q109 390 62 555q-30 106 -123 86q-54 -13 -107.5 -85t-86 -174.5t-39.5 -222.5zM541.5 1671q-1.5 24 13.5 47q27 35 67 34.5t74 -34.5l168 -170l-14 -18l-209 57q-45 13 -71.5 36.5t-28 47.5z" />
<glyph unicode="&#xd3;" horiz-adv-x="935" d="M25.5 429.5q9.5 129.5 50.5 287.5q92 348 270.5 549.5t390.5 183.5q40 -4 36 -19q-3 -14 -30 -19l-14 -1q-140 13 -267.5 -181.5t-205.5 -522.5q-86 -362 -70 -533t136 -176q75 -1 148.5 83t139.5 238q-129 62 -190 252q-30 93 -34 196.5t17 197t59 173t94 132.5t120 69 q116 28 191 -41.5t91 -224.5t-45 -391q-53 -197 -133 -344q94 31 195 147q62 74 62 50q0 -6 -3 -15q-13 -33 -55 -80q-105 -120 -221 -139q-101 -172 -226 -266t-237 -88q-61 4 -112 32t-90.5 88t-58 146.5t-9 216zM429 810q-7 -120 30 -228q58 -174 164 -232 q54 135 100 301q109 390 62 555q-30 106 -123 86q-54 -13 -107.5 -85t-86 -174.5t-39.5 -222.5zM551 1526l141 166q29 35 60.5 48.5t55.5 5.5t38 -32q21 -39 3 -75t-63 -54l-223 -80z" />
<glyph unicode="&#xd4;" horiz-adv-x="935" d="M25.5 429.5q9.5 129.5 50.5 287.5q92 348 270.5 549.5t390.5 183.5q40 -4 36 -19q-3 -14 -30 -19l-14 -1q-140 13 -267.5 -181.5t-205.5 -522.5q-86 -362 -70 -533t136 -176q75 -1 148.5 83t139.5 238q-129 62 -190 252q-30 93 -34 196.5t17 197t59 173t94 132.5t120 69 q116 28 191 -41.5t91 -224.5t-45 -391q-53 -197 -133 -344q94 31 195 147q62 74 62 50q0 -6 -3 -15q-13 -33 -55 -80q-105 -120 -221 -139q-101 -172 -226 -266t-237 -88q-61 4 -112 32t-90.5 88t-58 146.5t-9 216zM429 810q-7 -120 30 -228q58 -174 164 -232 q54 135 100 301q109 390 62 555q-30 106 -123 86q-54 -13 -107.5 -85t-86 -174.5t-39.5 -222.5zM500.5 1517q-4.5 8 1.5 13q57 35 101 80.5t61 73t49 83.5q3 7 32 5.5t29 -9.5q5 -82 33 -149.5t76 -87.5q5 -2 6.5 -11t-4.5 -15t-17 -1q-41 18 -87.5 53t-72.5 60l-26 26 q-7 -13 -69 -60.5t-99 -64.5q-9 -4 -13.5 4z" />
<glyph unicode="&#xd5;" horiz-adv-x="935" d="M25.5 429.5q9.5 129.5 50.5 287.5q92 348 270.5 549.5t390.5 183.5q40 -4 36 -19q-3 -14 -30 -19l-14 -1q-140 13 -267.5 -181.5t-205.5 -522.5q-86 -362 -70 -533t136 -176q75 -1 148.5 83t139.5 238q-129 62 -190 252q-30 93 -34 196.5t17 197t59 173t94 132.5t120 69 q116 28 191 -41.5t91 -224.5t-45 -391q-53 -197 -133 -344q94 31 195 147q62 74 62 50q0 -6 -3 -15q-13 -33 -55 -80q-105 -120 -221 -139q-101 -172 -226 -266t-237 -88q-61 4 -112 32t-90.5 88t-58 146.5t-9 216zM429 810q-7 -120 30 -228q58 -174 164 -232 q54 135 100 301q109 390 62 555q-30 106 -123 86q-54 -13 -107.5 -85t-86 -174.5t-39.5 -222.5zM510 1569q65 87 104 112q87 56 170 -12q37 -29 65.5 -39.5t60.5 -1t67 42.5l22 -14q-33 -56 -71.5 -90t-86.5 -45.5t-98 18.5q-83 46 -123.5 47.5t-89.5 -43.5z" />
<glyph unicode="&#xd6;" horiz-adv-x="935" d="M25.5 429.5q9.5 129.5 50.5 287.5q92 348 270.5 549.5t390.5 183.5q40 -4 36 -19q-3 -14 -30 -19l-14 -1q-140 13 -267.5 -181.5t-205.5 -522.5q-86 -362 -70 -533t136 -176q75 -1 148.5 83t139.5 238q-129 62 -190 252q-30 93 -34 196.5t17 197t59 173t94 132.5t120 69 q116 28 191 -41.5t91 -224.5t-45 -391q-53 -197 -133 -344q94 31 195 147q62 74 62 50q0 -6 -3 -15q-13 -33 -55 -80q-105 -120 -221 -139q-101 -172 -226 -266t-237 -88q-61 4 -112 32t-90.5 88t-58 146.5t-9 216zM426 1604.5q-20 41.5 4 81.5q25 39 78 53t104 -4 q51 -17 71 -59.5t-3 -82.5q-25 -39 -78 -53t-104 4q-52 19 -72 60.5zM429 810q-7 -120 30 -228q58 -174 164 -232q54 135 100 301q109 390 62 555q-30 106 -123 86q-54 -13 -107.5 -85t-86 -174.5t-39.5 -222.5zM742.5 1604.5q-19.5 41.5 5.5 81.5q25 39 78 53t104 -4 q51 -17 70.5 -59.5t-5.5 -82.5q-23 -38 -77 -53t-105 4t-70.5 60.5z" />
<glyph unicode="&#xd8;" horiz-adv-x="935" d="M43 -106q-7 25 23 77l40 74q-153 196 -30 672q92 348 270.5 549.5t390.5 183.5q40 -4 36 -19q-3 -14 -30 -19l-14 -1q-140 13 -267.5 -181.5t-205.5 -522.5q-83 -358 -72 -523l230 408q-36 118 -27.5 242.5t44.5 229.5t101.5 180.5t143.5 94.5q85 18 147 -12l51 90 q36 64 46 64q3 0 6 -6q8 -27 -23 -80l-49 -86q85 -65 102.5 -222.5t-43.5 -404.5q-53 -197 -133 -344q94 31 195 147q62 74 62 50q0 -6 -3 -15q-13 -33 -55 -80q-105 -120 -221 -139q-101 -172 -226 -266t-237 -88q-97 7 -164 71l-37 -67q-35 -64 -44 -65q-4 0 -7 8z M193 125q24 -124 129 -127q75 -1 148.5 83t139.5 238q-118 58 -182 228zM430.5 857q-13.5 -110 9.5 -214l332 594q-36 70 -110 55q-51 -12 -101 -76t-83.5 -156.5t-47 -202.5zM455 594q0 -4 4 -12q58 -174 164 -232q54 135 100 301q104 370 65 539z" />
<glyph unicode="&#xd9;" horiz-adv-x="804" d="M24 116q-10 125 46 326q27 95 81.5 303.5t69.5 272.5q32 129 52.5 225.5t24.5 128.5l5 31q6 0 16 2q108 15 135 -50.5t-20 -246.5q-57 -206 -184 -678q-93 -348 -41 -391q19 -17 57 18q61 58 138 196.5t120 274.5l127 490q33 129 53.5 225.5t24.5 128.5l4 31q7 0 15 2 q107 15 134.5 -50.5t-18.5 -246.5q-27 -96 -41 -160q-168 -646 -178 -688q-30 -133 7 -155q23 -15 54 25q5 6 9 13q26 40 49 85t38.5 81.5t57.5 134.5q31 70 41 70q6 0 6 -20q0 -23 -28 -93q-43 -105 -70 -159.5t-74 -130.5q-58 -93 -132 -109q-72 -14 -111 55 q-48 84 -21 252q-46 -92 -97.5 -169.5t-94.5 -116.5q-91 -80 -164 -62q-81 21 -91 155zM445.5 1651q-1.5 24 13.5 47q27 35 67 34.5t74 -34.5l168 -170l-14 -19l-209 58q-45 13 -71.5 36.5t-28 47.5z" />
<glyph unicode="&#xda;" horiz-adv-x="804" d="M24 116q-10 125 46 326q27 95 81.5 303.5t69.5 272.5q32 129 52.5 225.5t24.5 128.5l5 31q6 0 16 2q108 15 135 -50.5t-20 -246.5q-57 -206 -184 -678q-93 -348 -41 -391q19 -17 57 18q61 58 138 196.5t120 274.5l127 490q33 129 53.5 225.5t24.5 128.5l4 31q7 0 15 2 q107 15 134.5 -50.5t-18.5 -246.5q-27 -96 -41 -160q-168 -646 -178 -688q-30 -133 7 -155q23 -15 54 25q5 6 9 13q26 40 49 85t38.5 81.5t57.5 134.5q31 70 41 70q6 0 6 -20q0 -23 -28 -93q-43 -105 -70 -159.5t-74 -130.5q-58 -93 -132 -109q-72 -14 -111 55 q-48 84 -21 252q-46 -92 -97.5 -169.5t-94.5 -116.5q-91 -80 -164 -62q-81 21 -91 155zM508 1505l141 166q29 35 60.5 48.5t55.5 6t38 -31.5q21 -39 3 -75t-63 -54l-223 -80z" />
<glyph unicode="&#xdb;" horiz-adv-x="804" d="M24 116q-10 125 46 326q27 95 81.5 303.5t69.5 272.5q32 129 52.5 225.5t24.5 128.5l5 31q6 0 16 2q108 15 135 -50.5t-20 -246.5q-57 -206 -184 -678q-93 -348 -41 -391q19 -17 57 18q61 58 138 196.5t120 274.5l127 490q33 129 53.5 225.5t24.5 128.5l4 31q7 0 15 2 q107 15 134.5 -50.5t-18.5 -246.5q-27 -96 -41 -160q-168 -646 -178 -688q-30 -133 7 -155q23 -15 54 25q5 6 9 13q26 40 49 85t38.5 81.5t57.5 134.5q31 70 41 70q6 0 6 -20q0 -23 -28 -93q-43 -105 -70 -159.5t-74 -130.5q-58 -93 -132 -109q-72 -14 -111 55 q-48 84 -21 252q-46 -92 -97.5 -169.5t-94.5 -116.5q-91 -80 -164 -62q-81 21 -91 155zM433.5 1522q-0.5 5 2.5 8q57 35 101 80.5t61 73t49 83.5q3 7 32.5 5.5t29.5 -9.5q5 -82 32.5 -149.5t75.5 -87.5q5 -2 6.5 -11t-4 -15t-16.5 -1q-41 18 -87.5 53t-73.5 60l-26 26 q-7 -13 -68.5 -60.5t-98.5 -64.5q-6 -3 -10.5 0.5t-5 8.5z" />
<glyph unicode="&#xdc;" horiz-adv-x="804" d="M24 116q-10 125 46 326q27 95 81.5 303.5t69.5 272.5q32 129 52.5 225.5t24.5 128.5l5 31q6 0 16 2q108 15 135 -50.5t-20 -246.5q-57 -206 -184 -678q-93 -348 -41 -391q19 -17 57 18q61 58 138 196.5t120 274.5l127 490q33 129 53.5 225.5t24.5 128.5l4 31q7 0 15 2 q107 15 134.5 -50.5t-18.5 -246.5q-27 -96 -41 -160q-168 -646 -178 -688q-30 -133 7 -155q23 -15 54 25q5 6 9 13q26 40 49 85t38.5 81.5t57.5 134.5q31 70 41 70q6 0 6 -20q0 -23 -28 -93q-43 -105 -70 -159.5t-74 -130.5q-58 -93 -132 -109q-72 -14 -111 55 q-48 84 -21 252q-46 -92 -97.5 -169.5t-94.5 -116.5q-91 -80 -164 -62q-81 21 -91 155zM340 1588q-20 41 4 81q25 39 78 53t104 -4q51 -17 71 -59t-3 -82q-25 -39 -78 -53t-104 4q-52 19 -72 60zM656.5 1588q-19.5 41 5.5 81q25 39 78 53t104 -4q51 -17 70.5 -59t-5.5 -82 q-23 -38 -77 -53t-105 4t-70.5 60z" />
<glyph unicode="&#xdd;" horiz-adv-x="776" d="M24.5 -253.5q10.5 73.5 57.5 130.5q43 49 93.5 59t82.5 -28q22 -35 17 -67t-31 -52.5t-56 -13.5q-37 7 -65.5 -3.5t-42.5 -32t-13.5 -50t17.5 -54.5q42 -63 109 -24q102 61 197 326q18 52 36 110q14 49 80 303q-44 -91 -98.5 -172.5t-98.5 -122.5q-88 -79 -161 -62 q-79 18 -92 146q-14 127 46 336q118 432 144 543q32 129 52.5 225.5t25.5 128.5l4 31q6 0 14 2q108 15 135 -50.5t-18 -246.5q-79 -282 -176 -645q-93 -348 -41 -391q19 -17 57 18q68 66 152.5 226t119.5 305q12 48 21 65l82 332q34 129 54.5 225.5t23.5 128.5l4 31 q6 0 16 2q108 15 135 -50.5t-20 -246.5q-4 -15 -41 -160q-19 -77 -114 -438.5t-126 -472.5q-34 -122 -78.5 -216t-90 -150t-94 -91t-92.5 -43.5t-83.5 -2t-70 27t-48.5 49.5q-35 62 -24.5 135.5zM530 1505l142 166q29 35 60 48.5t55 6t38 -31.5q21 -39 3.5 -75t-62.5 -54 l-223 -80z" />
<glyph unicode="&#xde;" horiz-adv-x="1411" d="M23.5 165q-15.5 93 35.5 185.5t156 141.5q-12 83 6 171t66.5 171t120 150.5t174.5 113t221 55.5q16 67 29 130t18 93l6 29q6 2 16 2q101 11 133 -48t1 -204q256 -22 370.5 -150t57.5 -337q-29 -106 -96.5 -190.5t-149 -135.5t-178.5 -85t-180.5 -47t-159.5 -13 q-31 0 -41 2q-87 -120 -178.5 -179.5t-175.5 -58.5t-160 55q-76 56 -91.5 149zM77.5 165q16.5 -76 74.5 -118q39 -28 76.5 -34t74 10t72 50.5t71 90.5t70.5 126.5t70.5 162t70 194.5t70.5 225q28 91 64 232h-9q-119 -10 -224 -67.5t-174 -141t-103 -186t-19 -199.5 q45 14 107 20q25 3 36.5 -3t8.5 -17q-3 -6 -12.5 -12.5t-17.5 -9.5l-9 -3q-63 -6 -105 -20q32 -115 129 -191q12 -9 12 -20.5t-6 -19.5l-6 -7q-21 0 -55 29q-89 71 -121 188q-87 -44 -124.5 -123.5t-21 -155.5zM653 236q10 2 33 2q63 0 131.5 18.5t136.5 56t126.5 88 t104.5 120t68 147.5q48 164 -21.5 279t-240.5 147q-140 -562 -338 -858z" />
<glyph unicode="&#xdf;" horiz-adv-x="1386" d="M24.5 -253q10.5 74 57.5 130q41 49 91.5 59t82.5 -28q23 -35 18.5 -66.5t-31 -52t-57.5 -14.5q-74 15 -106.5 -34.5t4.5 -105.5q31 -47 87 -29q86 28 166 198q48 102 87 245l240 879q1 13 -4.5 16.5t-20.5 3.5h-10q-77 0 -77 10l3 7q18 18 80 18h16q10 0 14.5 0.5t9 4 t7.5 11.5q31 110 76.5 196.5t96 140t107 87t108.5 43.5t101 2q96 -14 164.5 -101.5t40.5 -211.5q-45 -206 -248 -262q167 -60 247.5 -211t33.5 -317q-31 -111 -100.5 -198t-150.5 -131t-168.5 -41.5t-153.5 60.5q-55 50 -78 111.5t-16 118.5t31 112t57 96t67 66 q54 40 108.5 41.5t81.5 -41.5q17 -39 7 -71t-40 -50t-61 -8q-38 11 -72 5t-58 -28.5t-41.5 -52.5t-23 -67.5t-1.5 -73.5t22.5 -70.5t48.5 -58.5q77 -59 148.5 -27t126 115.5t84.5 194.5q14 63 16.5 129.5t-17 131.5t-50.5 117t-83 86.5t-116 40.5q-8 0 -15 16q-13 27 17 32 h27q10 0 14 -2q72 12 135 78t80 155q18 100 -9 173t-96 83q-63 8 -135.5 -96t-136.5 -338l-254 -936q-33 -124 -77 -218.5t-90 -149.5t-95 -88.5t-94 -41t-84.5 -0.5t-69 26.5t-45.5 45.5q-35 62 -24.5 136z" />
<glyph unicode="&#xe0;" d="M50 520q3 13 7 27q35 134 89.5 234.5t112 152t116.5 74.5t107.5 14.5t80.5 -41.5q19 37 40 57t43.5 22t42 -4t44.5 -20l25 -16q-3 -11 -34 -125t-77.5 -291.5t-87.5 -343.5q-32 -130 4 -155q23 -15 54 21q6 8 12 17q26 40 49 85t38.5 81.5t57.5 134.5q31 70 41 71 q6 0 6 -21q0 -23 -28 -93q-43 -105 -70 -159.5t-74 -128.5q-50 -80 -112.5 -104.5t-109.5 22t-50 155.5q-37 -88 -70 -129q-62 -78 -137 -63q-73 15 -115 110q-68 154 -5 416zM202 140q16 -72 51 -72q18 -1 36 22q61 77 119 322q1 4 4.5 17.5t5.5 19.5l94 382q12 52 35 111 q-50 77 -122 8q-100 -97 -187 -413q-68 -256 -36 -397zM351.5 1262q-1.5 24 13.5 47q27 35 67 34.5t74 -34.5l168 -170l-15 -19l-208 58q-45 13 -71.5 36.5t-28 47.5z" />
<glyph unicode="&#xe1;" d="M50 520q3 13 7 27q35 134 89.5 234.5t112 152t116.5 74.5t107.5 14.5t80.5 -41.5q19 37 40 57t43.5 22t42 -4t44.5 -20l25 -16q-3 -11 -34 -125t-77.5 -291.5t-87.5 -343.5q-32 -130 4 -155q23 -15 54 21q6 8 12 17q26 40 49 85t38.5 81.5t57.5 134.5q31 70 41 71 q6 0 6 -21q0 -23 -28 -93q-43 -105 -70 -159.5t-74 -128.5q-50 -80 -112.5 -104.5t-109.5 22t-50 155.5q-37 -88 -70 -129q-62 -78 -137 -63q-73 15 -115 110q-68 154 -5 416zM202 140q16 -72 51 -72q18 -1 36 22q61 77 119 322q1 4 4.5 17.5t5.5 19.5l94 382q12 52 35 111 q-50 77 -122 8q-100 -97 -187 -413q-68 -256 -36 -397zM401 1116l142 166q29 35 60 48.5t55 6t38 -31.5q21 -39 3.5 -75t-62.5 -54l-223 -80z" />
<glyph unicode="&#xe2;" d="M50 520q3 13 7 27q35 134 89.5 234.5t112 152t116.5 74.5t107.5 14.5t80.5 -41.5q19 37 40 57t43.5 22t42 -4t44.5 -20l25 -16q-3 -11 -34 -125t-77.5 -291.5t-87.5 -343.5q-32 -130 4 -155q23 -15 54 21q6 8 12 17q26 40 49 85t38.5 81.5t57.5 134.5q31 70 41 71 q6 0 6 -21q0 -23 -28 -93q-43 -105 -70 -159.5t-74 -128.5q-50 -80 -112.5 -104.5t-109.5 22t-50 155.5q-37 -88 -70 -129q-62 -78 -137 -63q-73 15 -115 110q-68 154 -5 416zM202 140q16 -72 51 -72q18 -1 36 22q61 77 119 322q1 4 4.5 17.5t5.5 19.5l94 382q12 52 35 111 q-50 77 -122 8q-100 -97 -187 -413q-68 -256 -36 -397zM308.5 1112q-0.5 5 2.5 8q44 27 77 55.5t59.5 64.5t38 55t36.5 63q3 7 32.5 5.5t29.5 -9.5q5 -83 32.5 -150.5t75.5 -87.5q5 -2 6.5 -11t-4 -14.5t-16.5 -0.5q-41 18 -87.5 53t-72.5 61l-26 25q-7 -13 -69 -60.5 t-99 -64.5q-6 -3 -10.5 0t-5 8z" />
<glyph unicode="&#xe3;" d="M50 520q3 13 7 27q35 134 89.5 234.5t112 152t116.5 74.5t107.5 14.5t80.5 -41.5q19 37 40 57t43.5 22t42 -4t44.5 -20l25 -16q-3 -11 -34 -125t-77.5 -291.5t-87.5 -343.5q-32 -130 4 -155q23 -15 54 21q6 8 12 17q26 40 49 85t38.5 81.5t57.5 134.5q31 70 41 71 q6 0 6 -21q0 -23 -28 -93q-43 -105 -70 -159.5t-74 -128.5q-50 -80 -112.5 -104.5t-109.5 22t-50 155.5q-37 -88 -70 -129q-62 -78 -137 -63q-73 15 -115 110q-68 154 -5 416zM202 140q16 -72 51 -72q18 -1 36 22q61 77 119 322q1 4 4.5 17.5t5.5 19.5l94 382q12 52 35 111 q-50 77 -122 8q-100 -97 -187 -413q-68 -256 -36 -397zM279 1159q65 88 104 113q87 56 170 -12q37 -29 65.5 -39.5t60 -1t66.5 42.5l23 -15q-33 -56 -71.5 -90t-86.5 -45.5t-98 18.5q-83 47 -123.5 48.5t-89.5 -43.5z" />
<glyph unicode="&#xe4;" d="M50 520q3 13 7 27q35 134 89.5 234.5t112 152t116.5 74.5t107.5 14.5t80.5 -41.5q19 37 40 57t43.5 22t42 -4t44.5 -20l25 -16q-3 -11 -34 -125t-77.5 -291.5t-87.5 -343.5q-32 -130 4 -155q23 -15 54 21q6 8 12 17q26 40 49 85t38.5 81.5t57.5 134.5q31 70 41 71 q6 0 6 -21q0 -23 -28 -93q-43 -105 -70 -159.5t-74 -128.5q-50 -80 -112.5 -104.5t-109.5 22t-50 155.5q-37 -88 -70 -129q-62 -78 -137 -63q-73 15 -115 110q-68 154 -5 416zM202 140q16 -72 51 -72q18 -1 36 22q61 77 119 322q1 4 4.5 17.5t5.5 19.5l94 382q12 52 35 111 q-50 77 -122 8q-100 -97 -187 -413q-68 -256 -36 -397zM256 1195q-20 41 4 81q25 39 78 53t104 -4q51 -17 71 -59t-3 -82q-25 -39 -78 -53t-104 4q-52 19 -72 60zM572.5 1195q-19.5 41 5.5 81q25 39 78 53t104 -4q51 -17 70.5 -59t-5.5 -82q-23 -38 -77 -53t-105 4t-70.5 60 z" />
<glyph unicode="&#xe5;" d="M50 520q3 13 7 27q35 134 89.5 234.5t112 152t116.5 74.5t107.5 14.5t80.5 -41.5q19 37 40 57t43.5 22t42 -4t44.5 -20l25 -16q-3 -11 -34 -125t-77.5 -291.5t-87.5 -343.5q-32 -130 4 -155q23 -15 54 21q6 8 12 17q26 40 49 85t38.5 81.5t57.5 134.5q31 70 41 71 q6 0 6 -21q0 -23 -28 -93q-43 -105 -70 -159.5t-74 -128.5q-50 -80 -112.5 -104.5t-109.5 22t-50 155.5q-37 -88 -70 -129q-62 -78 -137 -63q-73 15 -115 110q-68 154 -5 416zM202 140q16 -72 51 -72q18 -1 36 22q61 77 119 322q1 4 4.5 17.5t5.5 19.5l94 382q12 52 35 111 q-50 77 -122 8q-100 -97 -187 -413q-68 -256 -36 -397zM389.5 1197q-26.5 56 5.5 110q32 52 105.5 71.5t140.5 -4.5q69 -25 95 -80.5t-7 -109.5q-32 -53 -104.5 -72.5t-139.5 4.5q-69 25 -95.5 81zM505.5 1222q-3.5 -44 10.5 -67q15 -23 38.5 -13.5t43.5 46.5q19 37 22 80.5 t-12 66.5q-13 23 -36.5 14t-43.5 -46q-19 -37 -22.5 -81z" />
<glyph unicode="&#xe6;" horiz-adv-x="1103" d="M49 516q4 15 8 31q35 135 89.5 235.5t112 152t116.5 74t107.5 13t80.5 -42.5q19 38 39.5 58t43 22.5t42 -3.5t45.5 -20l25 -16q0 -1 -5.5 -16t-7.5 -27q108 58 203.5 51.5t128.5 -65.5q37 -68 -30.5 -185t-191 -233t-263.5 -203q-9 -167 59.5 -244t159.5 -35 q73 36 141 122.5t146 258.5q31 70 41 71q6 0 6 -21q0 -28 -29 -93q-77 -167 -146 -256.5t-171 -136.5q-58 -26 -114.5 -32t-105 11t-86 53.5t-60 97.5t-25.5 141q-43 -146 -103 -222q-61 -77 -135 -63q-73 14 -114 108q-68 154 -7 414zM201 141q16 -72 51 -73q19 -1 37 22 q59 76 117 313q70 294 106 428q12 52 35 111q-49 76 -120 10q-100 -93 -185 -399l-4 -16q-69 -254 -37 -396zM596 393q53 35 101 79t83 88t64.5 92t46.5 90.5t28 83t9.5 70t-8.5 50.5q-27 58 -80 27q-80 -47 -157 -251q-16 -40 -30 -85l-51 -199z" />
<glyph unicode="&#xe7;" horiz-adv-x="598" d="M24 331q6 97 37 216q27 103 68.5 187.5t88.5 138.5t98.5 91.5t100.5 51t92 13t76 -18t50 -47.5q35 -62 23.5 -137t-62.5 -136q-42 -50 -98.5 -59.5t-89.5 31.5q-35 49 -7.5 98t80.5 43q76 -11 115.5 35.5t3.5 107.5q-32 53 -95 28q-84 -33 -161 -176q-59 -109 -100 -261 q-50 -188 -36.5 -298t57 -152.5t97.5 -20.5q74 31 145 119t146 259q33 70 42 71q5 0 5 -21q0 -30 -28 -93q-75 -166 -148 -257.5t-178 -133.5q-19 -8 -53 -16q-17 -40 -33 -66q70 18 129.5 0.5t79.5 -63.5t-18 -117q-45 -78 -150.5 -126t-177.5 -46q-25 0 -36 4.5t-4 11 t32 13.5q65 17 120 67.5t80 114.5q21 61 2 89t-65 15q-2 1 -5 2t-10.5 5.5t-10.5 10t-5.5 15t4.5 19.5q3 5 8.5 14t10 17t8.5 16q-52 -3 -95 14.5t-75.5 60t-48 106t-9.5 160.5z" />
<glyph unicode="&#xe8;" horiz-adv-x="655" d="M38 168.5q-42 136.5 19 378.5q27 103 72 187.5t97.5 138.5t110.5 91.5t113.5 51.5t104 13.5t84.5 -18.5t53 -48q37 -68 -30.5 -185t-192 -233t-264.5 -203q-7 -167 61.5 -244t159.5 -35q74 36 141.5 123t143.5 258q33 70 42 71q5 0 5 -21q0 -28 -29 -93 q-75 -167 -144 -256.5t-173 -136.5q-127 -57 -229.5 -16.5t-144.5 177zM211 393q53 35 101 79t83 88t64.5 92t46.5 90.5t28 83t9.5 70t-8.5 50.5q-27 60 -81 26q-80 -49 -159 -261q-29 -78 -55 -174q-24 -92 -29 -144zM318.5 1241q-1.5 24 13.5 47q27 35 67 34.5t74 -34.5 l168 -170l-14 -18l-209 57q-45 13 -71.5 36.5t-28 47.5z" />
<glyph unicode="&#xe9;" horiz-adv-x="655" d="M38 168.5q-42 136.5 19 378.5q27 103 72 187.5t97.5 138.5t110.5 91.5t113.5 51.5t104 13.5t84.5 -18.5t53 -48q37 -68 -30.5 -185t-192 -233t-264.5 -203q-7 -167 61.5 -244t159.5 -35q74 36 141.5 123t143.5 258q33 70 42 71q5 0 5 -21q0 -28 -29 -93 q-75 -167 -144 -256.5t-173 -136.5q-127 -57 -229.5 -16.5t-144.5 177zM211 393q53 35 101 79t83 88t64.5 92t46.5 90.5t28 83t9.5 70t-8.5 50.5q-27 60 -81 26q-80 -49 -159 -261q-29 -78 -55 -174q-24 -92 -29 -144zM309 1096l142 166q29 35 60 48.5t55 5.5t38 -32 q21 -39 3.5 -75t-62.5 -54l-223 -80z" />
<glyph unicode="&#xea;" horiz-adv-x="655" d="M38 168.5q-42 136.5 19 378.5q27 103 72 187.5t97.5 138.5t110.5 91.5t113.5 51.5t104 13.5t84.5 -18.5t53 -48q37 -68 -30.5 -185t-192 -233t-264.5 -203q-7 -167 61.5 -244t159.5 -35q74 36 141.5 123t143.5 258q33 70 42 71q5 0 5 -21q0 -28 -29 -93 q-75 -167 -144 -256.5t-173 -136.5q-127 -57 -229.5 -16.5t-144.5 177zM211 393q53 35 101 79t83 88t64.5 92t46.5 90.5t28 83t9.5 70t-8.5 50.5q-27 60 -81 26q-80 -49 -159 -261q-29 -78 -55 -174q-24 -92 -29 -144zM296 1112q0 5 3 8q44 27 77 55.5t59.5 64.5t38 55 t36.5 63q3 7 32 5.5t29 -9.5q5 -82 33 -150t76 -88q5 -2 6.5 -11t-4 -14.5t-16.5 -0.5q-41 18 -87.5 53t-72.5 61l-27 25q-7 -13 -69 -60.5t-99 -64.5q-6 -3 -10.5 0t-4.5 8z" />
<glyph unicode="&#xeb;" horiz-adv-x="655" d="M38 168.5q-42 136.5 19 378.5q27 103 72 187.5t97.5 138.5t110.5 91.5t113.5 51.5t104 13.5t84.5 -18.5t53 -48q37 -68 -30.5 -185t-192 -233t-264.5 -203q-7 -167 61.5 -244t159.5 -35q74 36 141.5 123t143.5 258q33 70 42 71q5 0 5 -21q0 -28 -29 -93 q-75 -167 -144 -256.5t-173 -136.5q-127 -57 -229.5 -16.5t-144.5 177zM202.5 1174q-19.5 41 4.5 81q25 39 78 53.5t104 -3.5q51 -17 71 -59.5t-3 -82.5q-25 -38 -78.5 -53t-104.5 4q-52 19 -71.5 60zM211 393q53 35 101 79t83 88t64.5 92t46.5 90.5t28 83t9.5 70t-8.5 50.5 q-27 60 -81 26q-80 -49 -159 -261q-29 -78 -55 -174q-24 -92 -29 -144zM519.5 1174q-19.5 41 4.5 81q25 39 78.5 53.5t104.5 -3.5q51 -17 70.5 -59.5t-5.5 -82.5q-23 -38 -77 -53t-105 4t-70.5 60z" />
<glyph unicode="&#xec;" horiz-adv-x="364" d="M49 393q61 239 66 258q73 288 209 195l30 -23q-1 -3 -11 -40.5t-26 -96t-34.5 -127.5t-39.5 -150t-38 -149q-33 -133 4 -155q23 -15 55 24l10 14q37 57 64 113.5t82 187.5q31 70 41 71q6 0 6 -21q0 -20 -29 -93q-44 -108 -70.5 -161.5t-72.5 -126.5q-57 -93 -131 -109 q-71 -16 -111 51q-62 104 -4 338zM131.5 1077q-1.5 24 13.5 47q27 35 67.5 34.5t74.5 -34.5l168 -170l-15 -18l-209 57q-45 13 -71.5 36.5t-28 47.5z" />
<glyph unicode="&#xed;" horiz-adv-x="364" d="M49 393q61 239 66 258q73 288 209 195l30 -23q-1 -3 -11 -40.5t-26 -96t-34.5 -127.5t-39.5 -150t-38 -149q-33 -133 4 -155q23 -15 55 24l10 14q37 57 64 113.5t82 187.5q31 70 41 71q6 0 6 -21q0 -20 -29 -93q-44 -108 -70.5 -161.5t-72.5 -126.5q-57 -93 -131 -109 q-71 -16 -111 51q-62 104 -4 338zM143 952l142 166q29 35 60 48.5t55 6t38 -31.5q21 -39 3.5 -75t-62.5 -54l-223 -80z" />
<glyph unicode="&#xee;" horiz-adv-x="364" d="M49 393q61 239 66 258q73 288 209 195l30 -23q-1 -3 -11 -40.5t-26 -96t-34.5 -127.5t-39.5 -150t-38 -149q-33 -133 4 -155q23 -15 55 24l10 14q37 57 64 113.5t82 187.5q31 70 41 71q6 0 6 -21q0 -20 -29 -93q-44 -108 -70.5 -161.5t-72.5 -126.5q-57 -93 -131 -109 q-71 -16 -111 51q-62 104 -4 338zM91 905q-1 3 0 5.5t3 4.5q44 27 77 55.5t59.5 64.5t38 55t36.5 63q3 7 32.5 5.5t29.5 -9.5q5 -83 32.5 -150.5t75.5 -87.5q5 -2 6.5 -11t-4 -14.5t-16.5 -0.5q-41 18 -87.5 53t-73.5 60l-26 26q-7 -13 -69 -60.5t-99 -64.5q-4 -2 -7 -1.5 t-5 2.5t-3 5z" />
<glyph unicode="&#xef;" horiz-adv-x="364" d="M-2 1031q-20 41 4 81q25 39 78 53t104 -4q51 -17 71 -59t-3 -82q-25 -39 -78 -53t-104 4q-52 19 -72 60zM49 393q61 239 66 258q73 288 209 195l30 -23q-1 -3 -11 -40.5t-26 -96t-34.5 -127.5t-39.5 -150t-38 -149q-33 -133 4 -155q23 -15 55 24l10 14q37 57 64 113.5 t82 187.5q31 70 41 71q6 0 6 -21q0 -20 -29 -93q-44 -108 -70.5 -161.5t-72.5 -126.5q-57 -93 -131 -109q-71 -16 -111 51q-62 104 -4 338zM314.5 1031q-19.5 41 4.5 81q25 38 78.5 53t104.5 -4q51 -17 70.5 -59t-5.5 -82q-23 -38 -77 -53t-105 4t-70.5 60z" />
<glyph unicode="&#xf0;" horiz-adv-x="804" d="M27 177q-22 149 36 370q27 103 65 186.5t80 137t87.5 90t89 50.5t82.5 13t70 -18v36l-5 154l-24 -4q-77 -13 -79 -3q-1 3 1 7q6 9 28 19t48 14l24 4l-8 182q7 4 15 6q83 36 127 0t53 -155l49 10q78 15 78 4q0 -2 -2 -6q-14 -25 -74 -35l-49 -10v-68q-9 -386 -117 -671.5 t-309 -452.5q-88 -73 -164 -39q-82 37 -102 179zM199 122q14 -69 51 -67q16 2 33 17q83 80 164 345.5t88 545.5q-57 54 -132 -45q-86 -113 -159 -381q-74 -277 -45 -415z" />
<glyph unicode="&#xf1;" horiz-adv-x="753" d="M2 95q-1 36 7.5 88.5t25.5 123.5q91 384 92 387q33 129 53.5 225.5t24.5 128.5l4 31q4 0 14 2q63 9 97.5 -14.5t43.5 -91.5t-26 -189q0 -1 -1 -3t-1 -3q67 120 137 185q91 82 161 61q81 -24 84 -176q2 -121 -48 -305q-46 -161 -74 -285q-32 -135 5 -156q24 -14 56 29 l7 10q26 40 49 85t38.5 81.5t57.5 134.5q36 86 45 68l2 -18q0 -20 -29 -93q-44 -108 -70.5 -161.5t-72.5 -126.5q-58 -94 -131 -115q-72 -20 -111 46q-58 98 -2 327l47 186q105 385 42 396q-16 3 -44 -23q-67 -64 -127 -182t-96 -265l-12 -45q-11 -35 -19 -32q-6 3 -8 20 q-4 19 15 96q26 119 98 256q-3 -13 -16.5 -65.5t-20.5 -85.5l-37 -144l-12 -45q-89 -346 -117 -467q-8 0 -18 2q-29 3 -47.5 8.5t-35 18.5t-23 36t-7.5 59zM336 1180q65 87 104 112q87 56 170 -12q37 -29 65.5 -39.5t60.5 -1t67 42.5l22 -14q-33 -56 -71.5 -90t-86.5 -45.5 t-98 18.5q-83 46 -123.5 47.5t-89.5 -43.5z" />
<glyph unicode="&#xf2;" horiz-adv-x="673" d="M22.5 246q-4.5 55 4 132.5t32.5 168.5q67 252 193.5 387.5t290.5 120.5q39 -2 36 -18q-2 -14 -27 -18q-8 -2 -15 -1q-96 7 -166 -112t-129 -369q-26 -111 -40 -196t-16.5 -140t5.5 -89.5t23.5 -48t39.5 -12.5q89 6 207 424q-48 44 -66 84q-32 62 -40 130.5t8 127 t57 102.5t100 58q71 18 116 -20.5t56 -146.5t-41 -298l-12 -43q55 20 109 74q67 62 67 45q1 -5 -4 -17q-9 -23 -61 -75q-60 -57 -123 -66q-69 -199 -183.5 -313t-212.5 -117q-26 -1 -52 6t-52.5 24.5t-48 45t-36.5 71.5t-19.5 99zM349 1262q-2 24 13 47q27 35 67.5 34.5 t74.5 -34.5l168 -170l-15 -19l-208 58q-45 13 -71.5 36.5t-28.5 47.5zM396.5 724.5q-0.5 -75.5 35.5 -149.5q17 -33 41 -57q85 320 69 386q-7 31 -34 26q-47 -10 -79 -70t-32.5 -135.5z" />
<glyph unicode="&#xf3;" horiz-adv-x="673" d="M22.5 246q-4.5 55 4 132.5t32.5 168.5q67 252 193.5 387.5t290.5 120.5q39 -2 36 -18q-2 -14 -27 -18q-8 -2 -15 -1q-96 7 -166 -112t-129 -369q-26 -111 -40 -196t-16.5 -140t5.5 -89.5t23.5 -48t39.5 -12.5q89 6 207 424q-48 44 -66 84q-32 62 -40 130.5t8 127 t57 102.5t100 58q71 18 116 -20.5t56 -146.5t-41 -298l-12 -43q55 20 109 74q67 62 67 45q1 -5 -4 -17q-9 -23 -61 -75q-60 -57 -123 -66q-69 -199 -183.5 -313t-212.5 -117q-26 -1 -52 6t-52.5 24.5t-48 45t-36.5 71.5t-19.5 99zM379 1137l141 166q29 35 60.5 48.5 t55.5 5.5t38 -32q21 -39 3 -75t-63 -54l-223 -80zM396.5 724.5q-0.5 -75.5 35.5 -149.5q17 -33 41 -57q85 320 69 386q-7 31 -34 26q-47 -10 -79 -70t-32.5 -135.5z" />
<glyph unicode="&#xf4;" horiz-adv-x="673" d="M22.5 246q-4.5 55 4 132.5t32.5 168.5q67 252 193.5 387.5t290.5 120.5q39 -2 36 -18q-2 -14 -27 -18q-8 -2 -15 -1q-96 7 -166 -112t-129 -369q-26 -111 -40 -196t-16.5 -140t5.5 -89.5t23.5 -48t39.5 -12.5q89 6 207 424q-48 44 -66 84q-32 62 -40 130.5t8 127 t57 102.5t100 58q71 18 116 -20.5t56 -146.5t-41 -298l-12 -43q55 20 109 74q67 62 67 45q1 -5 -4 -17q-9 -23 -61 -75q-60 -57 -123 -66q-69 -199 -183.5 -313t-212.5 -117q-26 -1 -52 6t-52.5 24.5t-48 45t-36.5 71.5t-19.5 99zM306.5 1112q-0.5 5 2.5 8q44 27 77 55.5 t59.5 64.5t38 55t36.5 63q3 7 32.5 5.5t29.5 -9.5q5 -83 32.5 -150.5t75.5 -87.5q5 -2 6.5 -11t-4 -14.5t-16.5 -0.5q-41 18 -87.5 53t-72.5 61l-27 25q-7 -13 -68.5 -60.5t-98.5 -64.5q-6 -3 -10.5 0t-5 8zM396.5 724.5q-0.5 -75.5 35.5 -149.5q17 -33 41 -57 q85 320 69 386q-7 31 -34 26q-47 -10 -79 -70t-32.5 -135.5z" />
<glyph unicode="&#xf5;" horiz-adv-x="673" d="M22.5 246q-4.5 55 4 132.5t32.5 168.5q67 252 193.5 387.5t290.5 120.5q39 -2 36 -18q-2 -14 -27 -18q-8 -2 -15 -1q-96 7 -166 -112t-129 -369q-26 -111 -40 -196t-16.5 -140t5.5 -89.5t23.5 -48t39.5 -12.5q89 6 207 424q-48 44 -66 84q-32 62 -40 130.5t8 127 t57 102.5t100 58q71 18 116 -20.5t56 -146.5t-41 -298l-12 -43q55 20 109 74q67 62 67 45q1 -5 -4 -17q-9 -23 -61 -75q-60 -57 -123 -66q-69 -199 -183.5 -313t-212.5 -117q-26 -1 -52 6t-52.5 24.5t-48 45t-36.5 71.5t-19.5 99zM297 1159q65 88 104 113q87 56 170 -12 q37 -29 65.5 -39.5t60.5 -1t67 42.5l22 -15q-33 -56 -71.5 -90t-86.5 -45.5t-98 18.5q-83 47 -123.5 48.5t-89.5 -43.5zM396.5 724.5q-0.5 -75.5 35.5 -149.5q17 -33 41 -57q85 320 69 386q-7 31 -34 26q-47 -10 -79 -70t-32.5 -135.5z" />
<glyph unicode="&#xf6;" horiz-adv-x="673" d="M22.5 246q-4.5 55 4 132.5t32.5 168.5q67 252 193.5 387.5t290.5 120.5q39 -2 36 -18q-2 -14 -27 -18q-8 -2 -15 -1q-96 7 -166 -112t-129 -369q-26 -111 -40 -196t-16.5 -140t5.5 -89.5t23.5 -48t39.5 -12.5q89 6 207 424q-48 44 -66 84q-32 62 -40 130.5t8 127 t57 102.5t100 58q71 18 116 -20.5t56 -146.5t-41 -298l-12 -43q55 20 109 74q67 62 67 45q1 -5 -4 -17q-9 -23 -61 -75q-60 -57 -123 -66q-69 -199 -183.5 -313t-212.5 -117q-26 -1 -52 6t-52.5 24.5t-48 45t-36.5 71.5t-19.5 99zM233.5 1195q-19.5 41 4.5 81q25 39 78 53 t104 -4q51 -17 70.5 -59t-3.5 -82q-25 -39 -78 -53t-104 4q-52 19 -71.5 60zM396.5 724.5q-0.5 -75.5 35.5 -149.5q17 -33 41 -57q85 320 69 386q-7 31 -34 26q-47 -10 -79 -70t-32.5 -135.5zM550.5 1195q-19.5 41 4.5 81q25 39 78 53t104 -4q51 -17 71 -59t-5 -82 q-23 -38 -77 -53t-105 4t-70.5 60z" />
<glyph unicode="&#xf7;" horiz-adv-x="442" d="M-50 422q0 3 3 6q18 21 80 21h383q79 0 79 -10q0 -3 -3 -7q-18 -18 -80 -18h-383q-79 0 -79 8zM30 72.5q-20 43.5 5 83.5q25 41 80.5 56.5t109.5 -3.5q53 -19 73.5 -63t-5.5 -85q-25 -40 -81 -55t-108 4q-54 19 -74 62.5zM205.5 713q-20.5 43 5.5 84q24 41 80 55.5 t108 -4.5q54 -19 74.5 -62t-4.5 -84t-80.5 -55.5t-109.5 4.5q-53 19 -73.5 62z" />
<glyph unicode="&#xf8;" horiz-adv-x="673" d="M25 -98q-8 27 22 78l45 79q-124 139 -33 488q67 252 193.5 387.5t290.5 120.5q39 -2 36 -18q-2 -14 -27 -18q-8 -2 -15 -1q-96 7 -166 -112t-129 -369q-46 -184 -56 -304l195 353q-25 61 -28 125t14 118t57 94.5t96 53.5q40 9 78 0l74 135q36 63 45 63q3 0 6 -6 q8 -26 -23 -79l-71 -129q54 -38 62.5 -143.5t-40.5 -305.5l-12 -43q55 20 109 74q67 62 67 45q1 -5 -4 -17q-9 -23 -61 -75q-60 -57 -123 -66q-69 -199 -183.5 -313t-212.5 -117q-67 0 -112 35l-43 -76q-35 -64 -44 -65q-4 0 -7 8zM184 156q3 -56 21 -81.5t49 -23.5 q89 6 207 424q-39 34 -60 72zM408 635l137 248q-1 27 -10.5 38.5t-26.5 8.5q-63 -14 -94.5 -106t-5.5 -189zM424 590q4 -10 8 -15q17 -33 41 -57q53 202 64 277z" />
<glyph unicode="&#xf9;" horiz-adv-x="749" d="M49 393q70 284 109 438q20 77 42 126.5t42 73t44.5 28.5t44 -1t46.5 -22l26 -16q-82 -289 -200 -760q-31 -133 7 -155q24 -15 56 24l10 14q125 201 267 688q20 77 42 126.5t42 73t45 28.5t44.5 -1t47.5 -22l24 -16q-86 -301 -198 -760q-33 -133 4 -155q23 -15 55 24 q5 6 10 14q37 57 64 113.5t82 187.5q36 86 45 68l2 -18q0 -20 -29 -93q-44 -108 -70.5 -161.5t-72.5 -126.5q-57 -93 -131 -109q-71 -16 -111 51q-62 104 -4 338q0 6 2 8q-71 -174 -139 -288q-57 -94 -131 -110q-72 -16 -112 51q-63 105 -5 339zM365.5 1282q-1.5 24 13.5 47 q27 35 67 34.5t74 -34.5l168 -170l-14 -18l-209 57q-45 13 -71.5 36.5t-28 47.5z" />
<glyph unicode="&#xfa;" horiz-adv-x="749" d="M49 393q70 284 109 438q20 77 42 126.5t42 73t44.5 28.5t44 -1t46.5 -22l26 -16q-82 -289 -200 -760q-31 -133 7 -155q24 -15 56 24l10 14q125 201 267 688q20 77 42 126.5t42 73t45 28.5t44.5 -1t47.5 -22l24 -16q-86 -301 -198 -760q-33 -133 4 -155q23 -15 55 24 q5 6 10 14q37 57 64 113.5t82 187.5q36 86 45 68l2 -18q0 -20 -29 -93q-44 -108 -70.5 -161.5t-72.5 -126.5q-57 -93 -131 -109q-71 -16 -111 51q-62 104 -4 338q0 6 2 8q-71 -174 -139 -288q-57 -94 -131 -110q-72 -16 -112 51q-63 105 -5 339zM397 1137l142 166 q29 35 60 48.5t55 5.5t38 -32q21 -39 3.5 -75t-62.5 -54l-223 -80z" />
<glyph unicode="&#xfb;" horiz-adv-x="749" d="M49 393q70 284 109 438q20 77 42 126.5t42 73t44.5 28.5t44 -1t46.5 -22l26 -16q-82 -289 -200 -760q-31 -133 7 -155q24 -15 56 24l10 14q125 201 267 688q20 77 42 126.5t42 73t45 28.5t44.5 -1t47.5 -22l24 -16q-86 -301 -198 -760q-33 -133 4 -155q23 -15 55 24 q5 6 10 14q37 57 64 113.5t82 187.5q36 86 45 68l2 -18q0 -20 -29 -93q-44 -108 -70.5 -161.5t-72.5 -126.5q-57 -93 -131 -109q-71 -16 -111 51q-62 104 -4 338q0 6 2 8q-71 -174 -139 -288q-57 -94 -131 -110q-72 -16 -112 51q-63 105 -5 339zM324.5 1128q-4.5 8 1.5 13 q57 35 101 80.5t61 73t49 83.5q3 7 32 5.5t29 -9.5q5 -82 33 -149.5t76 -87.5q5 -2 6.5 -11t-4.5 -15t-17 -1q-41 18 -87.5 53t-72.5 61l-26 25q-7 -13 -69 -60.5t-99 -64.5q-9 -4 -13.5 4z" />
<glyph unicode="&#xfc;" horiz-adv-x="749" d="M49 393q70 284 109 438q20 77 42 126.5t42 73t44.5 28.5t44 -1t46.5 -22l26 -16q-82 -289 -200 -760q-31 -133 7 -155q24 -15 56 24l10 14q125 201 267 688q20 77 42 126.5t42 73t45 28.5t44.5 -1t47.5 -22l24 -16q-86 -301 -198 -760q-33 -133 4 -155q23 -15 55 24 q5 6 10 14q37 57 64 113.5t82 187.5q36 86 45 68l2 -18q0 -20 -29 -93q-44 -108 -70.5 -161.5t-72.5 -126.5q-57 -93 -131 -109q-71 -16 -111 51q-62 104 -4 338q0 6 2 8q-71 -174 -139 -288q-57 -94 -131 -110q-72 -16 -112 51q-63 105 -5 339zM270 1195q-20 41 4 81 q25 38 78.5 53t104.5 -4q51 -17 70.5 -59t-3.5 -82q-25 -39 -78 -53t-104 4q-52 19 -72 60zM586.5 1195q-19.5 41 5.5 81q25 39 78 53t104 -4q51 -17 71 -59t-5 -82q-23 -38 -77.5 -53t-105.5 4t-70.5 60z" />
<glyph unicode="&#xfd;" horiz-adv-x="681" d="M-57.5 -253.5q10.5 73.5 59.5 130.5q41 49 91.5 59t82.5 -28q22 -35 17 -67t-31 -52.5t-56 -13.5q-37 7 -65.5 -3.5t-42.5 -32t-13.5 -50t17.5 -54.5q41 -62 106 -26q99 53 190 296q24 65 46 142l94 371q-82 -201 -145 -305q-57 -94 -131 -110q-72 -16 -112 51 q-63 105 -5 339q70 284 109 438q20 77 42 126.5t42 73t45 28.5t44.5 -1t47.5 -22l24 -16q-86 -301 -198 -760q-32 -130 5 -155q23 -15 54 22q6 7 12 16q129 206 271 703q0 1 1 3t1 3q23 86 47.5 134.5t53.5 62t54 9t62 -23.5l22 -14l-55 -201q-18 -67 -86 -328.5 t-119 -453.5q-33 -122 -76.5 -216.5t-88.5 -150.5t-93.5 -90.5t-93.5 -43t-85 -2t-70 27t-48 49.5q-37 62 -26.5 135.5zM383 1137l141 166q29 35 60.5 48.5t55.5 5.5t38 -32q21 -39 3 -75t-63 -54l-223 -80z" />
<glyph unicode="&#xfe;" horiz-adv-x="684" d="M-69 -229.5q-3 35.5 4 95t28 144.5q9 34 34 137t40 160q5 35 18 88q5 20 72.5 277t89.5 346q33 129 53.5 225.5t24.5 128.5l4 31q6 0 14 2q109 15 137 -50t-20 -245q-3 -11 -17 -67.5t-24 -92.5l-37 -135q54 97 113 150q86 77 160 61q78 -17 95 -134q19 -128 -46 -345 q-52 -172 -157.5 -297.5t-223.5 -198.5q-90 -54 -150 -57q-76 -289 -82 -320q-6 0 -18 2q-34 3 -54.5 10.5t-37.5 28t-20 56zM211 260q-40 -164 17 -185q25 -8 57 13q100 65 207 469q90 332 45 388q-19 23 -60 -15q-64 -60 -119 -177t-92 -270q-6 -28 -12 -47z" />
<glyph unicode="&#xff;" horiz-adv-x="681" d="M-57.5 -253.5q10.5 73.5 59.5 130.5q41 49 91.5 59t82.5 -28q22 -35 17 -67t-31 -52.5t-56 -13.5q-37 7 -65.5 -3.5t-42.5 -32t-13.5 -50t17.5 -54.5q41 -62 106 -26q99 53 190 296q24 65 46 142l94 371q-82 -201 -145 -305q-57 -94 -131 -110q-72 -16 -112 51 q-63 105 -5 339q70 284 109 438q20 77 42 126.5t42 73t45 28.5t44.5 -1t47.5 -22l24 -16q-86 -301 -198 -760q-32 -130 5 -155q23 -15 54 22q6 7 12 16q129 206 271 703q0 1 1 3t1 3q23 86 47.5 134.5t53.5 62t54 9t62 -23.5l22 -14l-55 -201q-18 -67 -86 -328.5 t-119 -453.5q-33 -122 -76.5 -216.5t-88.5 -150.5t-93.5 -90.5t-93.5 -43t-85 -2t-70 27t-48 49.5q-37 62 -26.5 135.5zM258 1195q-20 41 4 81q25 39 78 53t104 -4q51 -17 71 -59t-3 -82q-25 -39 -78 -53t-104 4q-52 19 -72 60zM574.5 1195q-19.5 41 5.5 81q25 39 78 53 t104 -4q51 -17 70.5 -59t-5.5 -82q-23 -38 -77 -53t-105 4t-70.5 60z" />
<glyph unicode="&#x131;" horiz-adv-x="364" d="M49 393q61 239 66 258q73 288 209 195l30 -23q-1 -3 -11 -40.5t-26 -96t-34.5 -127.5t-39.5 -150t-38 -149q-33 -133 4 -155q23 -15 55 24l10 14q37 57 64 113.5t82 187.5q31 70 41 71q6 0 6 -21q0 -20 -29 -93q-44 -108 -70.5 -161.5t-72.5 -126.5q-57 -93 -131 -109 q-71 -16 -111 51q-62 104 -4 338z" />
<glyph unicode="&#x13f;" horiz-adv-x="1177" d="M24.5 90q-9.5 44 10.5 95.5t69 97.5q74 71 196 78.5t228 -50.5q58 158 111 391q44 200 114 354.5t147.5 240.5t158 125.5t152.5 23t124 -81.5q44 -61 29.5 -151t-68.5 -154q-42 -50 -98.5 -59t-87.5 30q-23 36 -18.5 69t32 55t60.5 17q36 -5 68.5 11t48.5 43.5t19 60.5 t-20 62q-87 117 -194 23q-129 -114 -238 -482q-26 -89 -49 -189q-66 -288 -176 -477q46 -46 101.5 -86.5t123.5 -65t113 -5.5q72 31 132.5 123.5t123.5 275.5q28 74 37 73q5 -1 6 -20q4 -26 -20 -94q-22 -59 -34 -91t-33 -81.5t-36.5 -78.5t-38.5 -66t-44.5 -59.5t-49.5 -44 t-59 -34.5q-95 -38 -207.5 0.5t-202.5 128.5q-142 -166 -315 -166q-56 0 -103.5 21t-75 57t-37 80zM130 114.5q-6 -52.5 24 -90.5t90 -38q130 0 229 198q-77 64 -161.5 73.5t-137.5 -46.5q-38 -44 -44 -96.5zM927.5 677q-20.5 44 4.5 85q26 40 81.5 55t108.5 -4 q54 -19 74.5 -62.5t-4.5 -84.5q-26 -40 -82 -55.5t-109 3.5t-73.5 63z" />
<glyph unicode="&#x140;" horiz-adv-x="344" d="M29 393q25 101 83 324t78 301q32 129 52.5 225.5t25.5 128.5l4 31q7 0 15 2q105 15 133 -54.5t-17 -242.5q-50 -179 -219 -848q-33 -133 5 -155q23 -15 55 24l10 14q26 40 49 85t38.5 81.5t57.5 134.5q36 86 45 68q2 -5 2 -18q0 -23 -28 -93q-43 -105 -70 -159.5 t-74 -128.5q-57 -93 -130 -109q-72 -17 -112 52q-61 104 -3 337zM433 947q-15 32 3 61q19 29 58.5 39.5t76.5 -3.5q39 -12 54.5 -43.5t-2.5 -60.5q-19 -29 -60 -40t-78 3q-37 12 -52 44z" />
<glyph unicode="&#x152;" horiz-adv-x="1388" d="M25.5 429.5q9.5 129.5 50.5 287.5q92 348 270.5 549.5t390.5 183.5q40 -4 36 -19q-3 -14 -30 -19l-14 -1q-140 13 -267.5 -181.5t-205.5 -522.5q-86 -362 -70 -533t136 -176q73 -1 145 80.5t139 230.5q-52 29 -104 100.5t-82 161.5q-30 93 -34 196.5t17 197t59 173 t94 132.5t120 69q78 19 139 -8t98 -96q70 74 164.5 110.5t186.5 29.5t159 -56q46 -33 64.5 -77.5t11 -87.5t-35.5 -84.5t-68.5 -71t-93.5 -43.5t-105 -5q-24 4 -33.5 13t-3.5 18q4 5 14.5 9t19.5 6l9 1q62 -11 115.5 6t84 52.5t43.5 77.5t-1 85.5t-53 71.5 q-52 39 -112.5 41.5t-115 -27t-101 -95.5t-71.5 -158q-22 -92 -16.5 -167.5t54 -124t132.5 -48.5q23 0 32 -16q12 -20 -27 -31l-33 -5q-20 -2 -58 -2q-142 -11 -231 -182l-21 -47q-16 -39 -20 -61q-22 -71 -13.5 -140t34.5 -122.5t80 -83.5t124 -23q51 5 105 40t97 81.5 t86 110t70.5 113t53.5 101.5q34 69 42 70q5 1 5 -20q0 -28 -29 -93q-29 -64 -56 -114.5t-70.5 -113.5t-89 -106t-109.5 -76.5t-134 -41.5q-140 -17 -234.5 33.5t-131.5 146.5q-83 -92 -171.5 -139.5t-166.5 -42.5q-61 4 -112 32t-90.5 88t-58 146.5t-9 216zM429 810 q-7 -120 30 -228q28 -83 73 -146.5t89 -89.5l8 25q9 27 22 53q39 109 72 227q109 390 62 555q-30 106 -123 86q-54 -13 -107.5 -85t-86 -174.5t-39.5 -222.5zM907 659q32 13 60 19q-27 10 -49 24l-5 -20z" />
<glyph unicode="&#x153;" horiz-adv-x="1136" d="M22 322.5q4 99.5 37 224.5q65 252 192.5 387.5t291.5 120.5q38 -2 35 -18q-3 -14 -27 -18q-8 -2 -16 -1q-95 7 -165.5 -113t-129.5 -368q-26 -111 -40 -196t-16 -140t6 -89.5t23.5 -48t38.5 -12.5q83 6 190 363q-34 30 -55 73q-33 62 -39.5 142t10.5 151.5t60 127 t102 69.5q112 27 154 -76q82 77 176 108.5t163.5 17t96.5 -63.5q32 -60 -16 -158t-145 -198.5t-220 -190.5q-15 -15 -47 -35q-9 -6 -28.5 -18.5t-28.5 -18.5q-7 -169 60.5 -246t158.5 -35q74 36 142.5 123t143.5 258q31 70 42 71q6 -2 6 -21q0 -28 -29 -93 q-77 -167 -146.5 -256.5t-171.5 -136.5q-118 -56 -220.5 -21t-145.5 154q-58 -67 -120.5 -103t-115.5 -38q-37 -1 -72.5 13t-69 52.5t-51.5 98t-14 159zM392 626q5 -72 32 -122q18 -29 31 -47q0 1 1 3.5t1 4.5q5 36 18 82q4 12 8 25.5t9 29t8 23.5q71 282 25 304q-8 4 -19 1 q-34 -7 -62.5 -55.5t-42.5 -112.5t-9 -136zM629 397q2 1 6 2t6 2q52 35 98 78.5t80.5 87.5t62 90.5t44.5 89.5t26 81t9 68.5t-9 49.5q-27 60 -81 26q-80 -49 -159 -260q-29 -78 -55 -171q-1 -5 -3 -14.5t-3 -14.5q0 -1 -1 -3t-1 -3q-17 -83 -20 -109z" />
<glyph unicode="&#x178;" horiz-adv-x="776" d="M24.5 -253.5q10.5 73.5 57.5 130.5q43 49 93.5 59t82.5 -28q22 -35 17 -67t-31 -52.5t-56 -13.5q-37 7 -65.5 -3.5t-42.5 -32t-13.5 -50t17.5 -54.5q42 -63 109 -24q102 61 197 326q18 52 36 110q14 49 80 303q-44 -91 -98.5 -172.5t-98.5 -122.5q-88 -79 -161 -62 q-79 18 -92 146q-14 127 46 336q118 432 144 543q32 129 52.5 225.5t25.5 128.5l4 31q6 0 14 2q108 15 135 -50.5t-18 -246.5q-79 -282 -176 -645q-93 -348 -41 -391q19 -17 57 18q68 66 152.5 226t119.5 305q12 48 21 65l82 332q34 129 54.5 225.5t23.5 128.5l4 31 q6 0 16 2q108 15 135 -50.5t-20 -246.5q-4 -15 -41 -160q-19 -77 -114 -438.5t-126 -472.5q-34 -122 -78.5 -216t-90 -150t-94 -91t-92.5 -43.5t-83.5 -2t-70 27t-48.5 49.5q-35 62 -24.5 135.5zM346 1563.5q-20 41.5 4 81.5q25 39 78 53t104 -4q51 -17 71 -59.5t-3 -82.5 q-25 -39 -78 -53t-104 4q-52 19 -72 60.5zM662.5 1563.5q-19.5 41.5 5.5 81.5q25 39 78 53t104 -4q51 -17 70.5 -59.5t-5.5 -82.5q-23 -38 -77 -53t-105 4t-70.5 60.5z" />
<glyph unicode="&#x192;" horiz-adv-x="356" d="M-446.5 -253.5q10.5 73.5 59.5 130.5q41 49 91.5 59t82.5 -28q22 -35 17 -67t-31 -52.5t-56 -13.5q-37 7 -65.5 -3.5t-42.5 -32t-13.5 -50t17.5 -54.5q31 -47 87 -29q86 27 166 192q49 102 89 249l233 858q5 29 2.5 35t-20.5 6h-10q-79 0 -79 10q0 3 3 7q17 20 80 20h18 q11 0 15.5 0.5t8.5 4t7 11.5q28 100 69.5 181.5t88 133.5t97 88t98.5 49t90 12t74.5 -18.5t49.5 -47.5q35 -62 23.5 -137t-62.5 -136q-41 -50 -98 -58.5t-88 30.5q-23 36 -18.5 69t32 55t60.5 17q76 -11 114 35.5t2 107.5q-33 54 -97 27q-85 -35 -163 -185q-44 -85 -79 -196 q-7 -31 -4 -37t22 -6h10q79 0 79 -9l-3 -7q-18 -21 -80 -21h-18q-21 0 -27.5 -7.5t-15.5 -43.5h-2l-232 -858q-33 -124 -77 -218.5t-90 -149.5t-95 -88.5t-94 -41t-84.5 -0.5t-69 26.5t-45.5 45.5q-37 62 -26.5 135.5z" />
<glyph unicode="&#x2c6;" horiz-adv-x="372" d="M23 1109q-3 7 2 11q44 27 77 55.5t59.5 64.5t38 55t36.5 63q3 7 32 5.5t29 -9.5q5 -82 33 -150t76 -88q5 -2 6.5 -11t-4.5 -14.5t-17 -0.5q-41 18 -87.5 53t-72.5 61l-26 25q-7 -13 -69 -60.5t-99 -64.5q-10 -5 -14 5z" />
<glyph unicode="&#x2c7;" horiz-adv-x="372" d="M22.5 1346q-1.5 9 4 15t16.5 1q41 -18 87.5 -53.5t72.5 -61.5l26 -26q7 12 68.5 60t99.5 67q11 4 15 -8q3 -7 -2 -9q-57 -36 -101 -82t-61 -73.5t-49 -83.5q-5 -6 -33.5 -4t-28.5 8q-5 82 -32.5 149.5t-75.5 89.5q-5 2 -6.5 11z" />
<glyph unicode="&#x2d8;" horiz-adv-x="321" d="M33 1262q5 19 26 57q13 20 30 18q15 -1 5 -19q-2 -2 -4 -5q-14 -19 -20 -47q-8 -37 16.5 -56.5t83.5 -13.5q102 11 162 104q26 40 29 24q3 -10 -7 -40q-15 -57 -65.5 -118.5t-118.5 -73.5q-90 -19 -127 28t-10 142z" />
<glyph unicode="&#x2d9;" horiz-adv-x="268" d="M30.5 1207.5q-20.5 43.5 4.5 84.5q26 40 81.5 55t108.5 -4q54 -19 74.5 -62.5t-4.5 -84.5q-26 -40 -82 -55t-109 4t-73.5 62.5z" />
<glyph unicode="&#x2da;" horiz-adv-x="350" d="M33.5 1197q-26.5 56 5.5 110q32 52 105.5 71.5t140.5 -4.5q69 -25 95 -80.5t-7 -109.5q-32 -53 -104.5 -72.5t-139.5 4.5q-69 25 -95.5 81zM149.5 1222q-3.5 -44 10.5 -67q15 -23 38.5 -13.5t43.5 46.5q19 37 22 80.5t-12 66.5q-14 23 -37 14t-43 -46q-19 -37 -22.5 -81z " />
<glyph unicode="&#x2db;" horiz-adv-x="376" d="M23 -268q9 96 79 195t136 151q40 32 42 17q1 -9 -16 -34q-42 -60 -71 -147.5t-29 -163.5q0 -63 31.5 -81t68.5 14q55 49 105 129q28 47 42.5 47t-3.5 -42q-10 -22 -27 -48q-61 -85 -109 -121q-42 -34 -88.5 -47.5t-84 -6t-59.5 43t-17 94.5z" />
<glyph unicode="&#x2dc;" horiz-adv-x="468" d="M20 1159q66 88 105 113q87 56 170 -12q37 -29 65.5 -39.5t60 -1t66.5 42.5l23 -15q-33 -56 -71.5 -90t-86.5 -45.5t-98 18.5q-83 47 -123.5 48.5t-89.5 -43.5z" />
<glyph unicode="&#x2dd;" horiz-adv-x="425" d="M20 1098q19 44 91 190q65 129 131 88q34 -24 25.5 -65t-46.5 -76q-37 -34 -82.5 -72t-72.5 -59l-27 -21zM217 1098q25 58 90 190q62 130 129 88q36 -24 28 -65t-46 -76q-37 -34 -82.5 -72t-72.5 -59l-27 -21z" />
<glyph unicode="&#x2000;" horiz-adv-x="946" />
<glyph unicode="&#x2001;" horiz-adv-x="1892" />
<glyph unicode="&#x2002;" horiz-adv-x="946" />
<glyph unicode="&#x2003;" horiz-adv-x="1892" />
<glyph unicode="&#x2004;" horiz-adv-x="630" />
<glyph unicode="&#x2005;" horiz-adv-x="473" />
<glyph unicode="&#x2006;" horiz-adv-x="315" />
<glyph unicode="&#x2007;" horiz-adv-x="315" />
<glyph unicode="&#x2008;" horiz-adv-x="236" />
<glyph unicode="&#x2009;" horiz-adv-x="378" />
<glyph unicode="&#x200a;" horiz-adv-x="105" />
<glyph unicode="&#x2010;" horiz-adv-x="628" d="M144 422q0 3 3 6q17 21 80 21h281q79 0 79 -10q0 -3 -3 -7q-18 -18 -80 -18h-281q-79 0 -79 8z" />
<glyph unicode="&#x2011;" horiz-adv-x="628" d="M144 422q0 3 3 6q17 21 80 21h281q79 0 79 -10q0 -3 -3 -7q-18 -18 -80 -18h-281q-79 0 -79 8z" />
<glyph unicode="&#x2012;" horiz-adv-x="628" d="M144 422q0 3 3 6q17 21 80 21h281q79 0 79 -10q0 -3 -3 -7q-18 -18 -80 -18h-281q-79 0 -79 8z" />
<glyph unicode="&#x2013;" horiz-adv-x="731" d="M144 422q0 3 3 6q17 21 80 21h383q79 0 79 -10q0 -3 -3 -7q-18 -18 -80 -18h-383q-79 0 -79 8z" />
<glyph unicode="&#x2014;" horiz-adv-x="933" d="M144 422q0 3 3 6q17 21 80 21h588q77 0 77 -10l-3 -7q-18 -18 -80 -18h-588q-77 0 -77 8z" />
<glyph unicode="&#x2018;" horiz-adv-x="212" d="M66.5 1137.5q-7.5 41.5 15.5 87.5q26 60 73 107.5t105 72.5q24 11 25 -1t-17 -20l-4 -2q-82 -35 -98 -110q-5 -20 3.5 -36.5t21 -26.5t24 -26t12.5 -34q3 -44 -34.5 -69t-75.5 -5q-43 21 -50.5 62.5z" />
<glyph unicode="&#x2019;" horiz-adv-x="366" d="M124 1066q2 13 21 21q36 15 64 45.5t35 65.5q5 20 -3.5 36.5t-21.5 26.5t-24.5 26t-12.5 34q-3 44 35 69t76 5q43 -21 50.5 -62.5t-15.5 -87.5q-26 -60 -73 -107.5t-105 -72.5q-25 -12 -26 1z" />
<glyph unicode="&#x201a;" horiz-adv-x="323" d="M63 -122q-1 12 17 20l4 2q36 15 63.5 45t34.5 65q5 20 -3.5 36.5t-21 26.5t-24 26t-12.5 34q-3 44 34.5 69t75.5 5q43 -21 50.5 -62.5t-15.5 -87.5q-26 -60 -73 -107.5t-105 -72.5q-24 -11 -25 1z" />
<glyph unicode="&#x201c;" horiz-adv-x="299" d="M66.5 1137.5q-7.5 41.5 15.5 87.5q26 60 73 107.5t105 72.5q24 11 25 -1t-17 -20l-4 -2q-82 -35 -98 -110q-5 -20 3.5 -36.5t21 -26.5t24 -26t12.5 -34q3 -44 -34.5 -69t-75.5 -5q-43 21 -50.5 62.5zM279 1225q26 60 73 107.5t105 72.5q24 11 25 -1t-17 -20l-4 -2 q-36 -15 -64 -45.5t-35 -64.5q-5 -20 3.5 -36.5t21.5 -26.5t24.5 -26t12.5 -34q3 -44 -35 -69t-76 -5q-84 41 -34 150z" />
<glyph unicode="&#x201d;" horiz-adv-x="501" d="M124 1066q2 13 21 21q36 15 64 45.5t35 65.5q5 20 -3.5 36.5t-21.5 26.5t-24.5 26t-12.5 34q-3 44 35 69t76 5q43 -21 50.5 -62.5t-15.5 -87.5q-26 -60 -73 -107.5t-105 -72.5q-25 -12 -26 1zM321 1066q2 13 21 21q81 35 98 111q5 20 -3.5 36.5t-21 26.5t-24 26t-12.5 34 q-3 44 34.5 69t75.5 5q43 -21 50.5 -62.5t-15.5 -87.5q-26 -60 -73 -107.5t-105 -72.5q-25 -12 -25 1z" />
<glyph unicode="&#x201e;" horiz-adv-x="522" d="M63 -122q-1 12 17 20l4 2q36 15 63.5 45t34.5 65q5 20 -3.5 36.5t-21 26.5t-24 26t-12.5 34q-3 44 34.5 69t75.5 5q43 -21 50.5 -62.5t-15.5 -87.5q-26 -60 -73 -107.5t-105 -72.5q-24 -11 -25 1zM260 -122q-1 12 17 20l4 2q82 35 98 110q5 20 -3.5 36.5t-21.5 26.5 t-24.5 26t-12.5 34q-3 44 35 69t76 5q43 -21 50.5 -62.5t-15.5 -87.5q-26 -60 -73 -107.5t-105 -72.5q-24 -11 -25 1z" />
<glyph unicode="&#x2020;" horiz-adv-x="307" d="M-84 -346l322 1233h-115q-79 0 -79 8q0 3 3 6q17 21 80 21h121l108 417q18 74 27 74q3 0 6 -6q15 -18 0 -82l-104 -403h123q78 0 78 -10q0 -3 -3 -7q-18 -18 -80 -18h-129l-323 -1247q-18 -74 -29 -74q-3 0 -6 6q-14 21 0 82z" />
<glyph unicode="&#x2021;" horiz-adv-x="307" d="M-171 67q0 3 3 7q18 18 80 18h119l207 795h-125q-79 0 -79 8q0 3 3 6q17 21 80 21h131l108 417q18 74 27 74q3 0 6 -6q15 -18 0 -82l-104 -403h112q79 0 79 -10q0 -3 -3 -7q-18 -18 -80 -18h-119l-206 -795h125q78 0 78 -8q0 -3 -3 -6q-18 -21 -80 -21h-129l-108 -417 q-18 -74 -29 -74q-3 0 -6 6q-14 21 0 82l104 403h-112q-79 0 -79 10z" />
<glyph unicode="&#x2022;" horiz-adv-x="452" d="M61 487q-27 59 7 113q32 55 108 76t148 -4q70 -25 97.5 -84t-7.5 -115q-32 -54 -108 -74.5t-146 4.5q-72 25 -99 84z" />
<glyph unicode="&#x2026;" horiz-adv-x="1044" d="M30 72.5q-20 43.5 5 83.5q25 41 80.5 56.5t109.5 -3.5q53 -19 73.5 -63t-5.5 -85q-25 -40 -81 -55t-108 4q-54 19 -74 62.5zM378.5 72.5q-20.5 43.5 4.5 83.5q25 41 80.5 56.5t109.5 -3.5q53 -19 73.5 -63t-5.5 -85q-25 -40 -80.5 -55t-107.5 4q-54 19 -74.5 62.5z M726.5 72.5q-20.5 43.5 4.5 83.5q25 41 81 56.5t110 -3.5q53 -19 73 -63t-6 -85q-25 -40 -80.5 -55t-107.5 4q-54 19 -74.5 62.5z" />
<glyph unicode="&#x202f;" horiz-adv-x="378" />
<glyph unicode="&#x2030;" horiz-adv-x="2516" d="M22 779.5q5 87.5 33 191.5q63 245 209.5 384.5t313.5 125.5q40 -4 37 -19q-3 -14 -30 -19q-7 -1 -14 -1q-99 9 -189 -117.5t-146 -363.5q-26 -109 -36 -195.5t-6 -140t18 -88.5t33.5 -48t43.5 -12q51 2 126 125.5t124 302.5q31 106 45 209q-13 0 -17 2q-68 13 -103 63.5 t-18.5 109.5t84.5 93q28 14 57.5 14.5t58 -13t52 -39.5t39.5 -69.5t19 -98.5q85 27 169.5 77t149.5 113q59 58 66 51l5 -1q4 -1 9 -1q116 -12 124.5 -93.5t-83.5 -242.5q-28 -48 -315.5 -518t-313.5 -506q-76 -114 -116 -71l-11 14l641 1288l35 78q-27 -33 -39 -43 q-63 -60 -148 -110.5t-171 -77.5q0 -75 -29 -197q-26 -97 -70 -181.5t-94 -143t-105 -101.5t-104.5 -64t-89.5 -22q-31 -1 -63.5 10t-68 34t-61 66t-41 100.5t-10.5 145zM482 1275.5q-7 -39.5 19.5 -75.5t76.5 -45q2 -2 10 -2q6 68 -1 112.5t-22.5 60.5t-36.5 7 q-39 -18 -46 -57.5zM991.5 281.5q4.5 87.5 32.5 191.5q65 246 210.5 385t313.5 125q39 -4 36 -19q-3 -14 -28 -19q-7 -1 -14 -1q-101 9 -190.5 -117.5t-145.5 -363.5q-26 -109 -36 -195.5t-6 -140t18.5 -88t34 -47.5t43.5 -12q50 2 125 126.5t124 301.5q27 94 43 208 q-10 0 -14 2q-51 10 -84 43t-41 73.5t14.5 82.5t73.5 68q75 37 145 -18t80 -189q148 47 275 149q136 178 323 160q79 -7 130 -37.5t79.5 -92.5t24 -164.5t-42.5 -248.5q-37 -141 -95 -246.5t-124.5 -163.5t-133.5 -84.5t-132 -21.5q-47 3 -85.5 18.5t-74.5 54t-53.5 97.5 t-13 157t37.5 224q40 148 103 262q-109 -72 -218 -106q0 -91 -28 -197q-25 -97 -69 -181.5t-94 -143t-104.5 -101.5t-104 -64t-89.5 -22q-31 -1 -63.5 10t-68 34t-61.5 66t-41.5 100.5t-11 145zM1451 778.5q-7 -39.5 20 -76t77 -45.5q2 -2 8 -2q7 71 0 114t-22.5 59.5 t-36.5 7.5q-39 -18 -46 -57.5zM1972 134q1 -54 12.5 -89t28.5 -49.5t41 -15.5q64 -5 136 105.5t134 326.5q68 234 68 383t-76 155q-95 7 -165.5 -113t-129.5 -368q-26 -110 -38 -195.5t-11 -139.5z" />
<glyph unicode="&#x2039;" horiz-adv-x="380" d="M23 417q2 29 8 29q74 4 166 61t114 109q2 5 11 6.5t15 -4t1 -16.5q-18 -41 -63.5 -97.5t-82.5 -92.5l-36 -37q12 -6 61.5 -78t69.5 -113q2 -6 -1.5 -10.5t-8.5 -4.5t-7 3q-54 85 -112.5 133t-130.5 80q-6 3 -4 32z" />
<glyph unicode="&#x203a;" horiz-adv-x="380" d="M109 188q18 41 63.5 98t81.5 94l37 36q-12 6 -61.5 77.5t-69.5 112.5q-4 12 8 15q6 1 8 -3q53 -84 112 -131.5t132 -80.5q6 -3 4 -32.5t-8 -29.5q-74 -4 -166.5 -61t-114.5 -109q-2 -5 -10.5 -6.5t-14.5 4t-1 16.5z" />
<glyph unicode="&#x205f;" horiz-adv-x="473" />
<glyph unicode="&#x20ac;" horiz-adv-x="921" d="M22 532q0 2 3 5q17 20 79 20h52l12 70h-33q-79 0 -79 9l3 7q17 21 80 21h39q2 16 10 43q37 141 91 258.5t113 196t124.5 136t127 84.5t117.5 35t99.5 -6.5t69.5 -46.5q43 -60 29 -151t-68 -154q-43 -50 -100.5 -59t-88.5 30q-22 36 -17.5 69t31.5 55t60 17q36 -5 68.5 11 t49 43t20 60.5t-18.5 62.5q-44 58 -129 20q-107 -48 -212 -220q-111 -182 -185 -452l-9 -32h142q79 0 79 -10q0 -3 -3 -7q-17 -20 -80 -20h-148l-12 -70h129q79 0 79 -9l-3 -7q-19 -19 -80 -19h-129q-9 -70 -8 -133.5t10 -111.5t24.5 -89.5t35.5 -66.5t43 -43t46.5 -18.5 t46.5 6.5q75 31 146 119t147 259q31 70 41 71q6 0 6 -21q0 -30 -28 -93q-77 -168 -149 -258.5t-177 -132.5q-62 -24 -122 -18.5t-110.5 41.5t-86.5 102t-49 162.5t2 224.5h-52q-79 0 -78 10z" />
<glyph unicode="&#x25fc;" horiz-adv-x="1105" d="M0 0v1106h1106v-1106h-1106z" />
</font>
</defs>
</svg>
